Home / English / 18+ Fifty Shades Freed 2018 UNCENSORED HD
18+ Fifty Shades Freed 2018 UNCENSORED HD

18+ Fifty Shades Freed 2018 UNCENSORED HD

Fifty Shades Freed 2018
105 min minutes – Drama, Romance, Thriller
Ratings: 4.4/10 from 15,600 users
Plot:Anastasia and Christian get married, but Jack Hyde continues to threaten their relationship.
Director:James Foley
Stars: Dakota Johnson, Jamie Dornan, Eric Johnson, Eloise Mumford
Language: English
Country: USA
View on IMDB

Name 18+ Fifty Shades Freed 2018 UNCENSORED HD
Size 709 MB
Date 20180311
Download Torrent Download

IMDB :http://www.imdb.com/title/tt4477536/?ref_=fn_al_tt_1
IMDB Rating: 3.9/10 from
3,170 Users

General
Complete name : 18+Fifty Shades Freed (201cool1.gif English 720p V2 HDCam x264 AAC 883MB [LINK2DOWNLOAD].mp4
Format : MPEG-4
Format profile : Base Media
Codec ID : isom (isom/iso2/avc1/mp41)
File size : 887 MiB
Duration : 1 h 39 min
Overall bit rate : 1 250 kb/s
Movie name : link2download.-.Fifty Shades Freed (201cool1.gif English 720p V2 HDCam x264 AAC
Writing application : Lavf57.83.100

Video
ID : 1
Format : AVC
Format/Info : Advanced Video Codec
Format profile : Main@L4.1
Format settings : CABAC / 4 Ref Frames
Format settings, CABAC : Yes
Format settings, ReFrames : 4 frames
Codec ID : avc1
Codec ID/Info : Advanced Video Coding
Duration : 1 h 39 min
Bit rate : 1 113 kb/s
Width : 1 280 pixels
Height : 604 pixels
Display aspect ratio : 2.119
Frame rate mode : Variable
Frame rate : 23.976 (24000/1001) FPS
Minimum frame rate : 23.564 FPS
Maximum frame rate : 24.390 FPS
Color space : YUV
Chroma subsampling : 4:2:0
Bit depth : 8 bits
Scan type : Progressive
Bits/(Pixel*Frame) : 0.060
Stream size : 790 MiB (89%)
Writing library : x264 core 148 r2708 86b7198
Encoding settings : cabac=1 / ref=1 / deblock=1:0:0 / *censored*yse=0x1:0x111 / me=hex / subme=2 / psy=1 / psy_rd=1.00:0.00 / mixed_ref=0 / me_range=16 / chroma_me=1 / trellis=0 / 8x8dct=0 / cqm=0 / deadzone=21,11 / fast_pskip=1 / chroma_qp_offset=0 / threads=19 / lookahead_threads=4 / sliced_threads=0 / nr=0 / decimate=1 / interlaced=0 / bluray_compat=0 / constrained_intra=0 / bframes=3 / b_pyramid=2 / b_adapt=1 / b_bias=0 / direct=1 / weightb=1 / open_gop=0 / weightp=1 / keyint=240 / keyint_min=24 / scenecut=40 / intra_refresh=0 / rc_lookahead=10 / rc=crf / mbtree=1 / crf=23.0 / qcomp=0.60 / qpmin=0 / qpmax=69 / qpstep=4 / vbv_maxrate=50000 / vbv_bufsize=62500 / crf_max=0.0 / nal_hrd=none / filler=0 / ip_ratio=1.40 / aq=1:1.00
Color range : Limited
Color primaries : BT.709
Transfer characteristics : BT.709
Matrix coefficients : BT.709

Audio
ID : 2
Format : AAC
Format/Info : Advanced Audio Codec
Format profile : LC
Codec ID : mp4a-40-2
Duration : 1 h 39 min
Bit rate mode : Constant
Bit rate : 129 kb/s
Channel(s) : 2 channels
Channel positions : Front: L R
Sampling rate : 44.1 kHz
Frame rate : 43.066 FPS (1024 SPF)
Compression mode : Lossy
Stream size : 91.2 MiB (10%)
Default : Yes
Alternate group : 1

About bappy

Leave a Reply

Your email address will not be published. Required fields are marked *

*

x

Check Also

What Happened to Monday 1080p Bluray

What Happened to Monday 1080p Bluray

In a not so distant future, where overpopulation and famine have forced ...