Home / Hindi / Action Man Charlie (2018) Hindi Dubbed 720p WEBHD
Action Man Charlie (2018) Hindi Dubbed 720p WEBHD

Action Man Charlie (2018) Hindi Dubbed 720p WEBHD

Charlie 2015
130 min minutes – Drama, Musical, Thriller
Ratings: 7.8/10 from 3,689 users
Plot:Charlie is a young guy who always loves traveling and believes in enjoying life to the fullest. He considers life to be a celebration and tries to bring happiness in the lives of people around him. Tessa is a graphic artist with a sensitive outlook towards life. The film depicts the love story of Charlie and Tessa, and how their love influences the lives of the people around them.
Director:Martin Prakkat
Stars: Dulquer Salmaan, Parvathy, Aparna Gopinath, Nedumudi Venu
Language: Malayalam
Country: India

Name Action Man Charlie (2018) Hindi Dubbed 720p WEBHD
Size 814.01 MB
Date 20180130
Download Torrent

Story line

Plot: Charlie is a young guy who always loves traveling and believes in enjoying life to the fullest. He considers life to be a celebration and tries to bring happiness in the lives of people around him. Tessa is a graphic artist with a sensitive outlook towards life. The film depicts the love story of Charlie and Tessa, and how their love influences the lives of the people around them.
Actors: Dulquer Salmaan, Parvathy, Aparna Gopinath, Nedumudi Venu
Awards: 9 wins.
Country: India

Media info

Code
General
Complete name : Action Man Charlie (2018) Latest Released Full Hindi Dubbed Movie
Format : MPEG-4
Format profile : Base Media / Version 2
Codec ID : mp42 (isom/mp42)
File size : 814 MiB
Duration : 1 h 53 min
Overall bit rate mode : Variable
Overall bit rate : 1 004 kb/s
Encoded date : UTC 2018-01-28 13:00:44
Tagged date : UTC 2018-01-28 13:00:44
gsst : 0
gstd : 6800521

Video
Format : AVC
Format/Info : Advanced Video Codec
Format profile : Main@L3.1
Format settings : CABAC / 3 Ref Frames
Format settings, CABAC : Yes
Format settings, RefFrames : 3 frames
Codec ID : avc1
Codec ID/Info : Advanced Video Coding
Duration : 1 h 53 min
Bit rate : 875 kb/s
Width : 1 280 pixels
Height : 720 pixels
Display aspect ratio : 16:9
Frame rate mode : Constant
Frame rate : 29.970 (30000/1001) FPS
Color space : YUV
Chroma subsampling : 4:2:0
Bit depth : 8 bits
Scan type : Progressive
Bits/(Pixel*Frame) : 0.032
Stream size : 709 MiB (87%)
Title : ISO Media file produced by Google Inc. Created on: 01/28/2018.
Encoded date : UTC 2018-01-28 13:00:44
Tagged date : UTC 2018-01-28 13:00:44
Color range : Limited
Color primaries : BT.709
Transfer characteristics : BT.709
Matrix coefficients : BT.709

Audio
Format : AAC
Format/Info : Advanced Audio Codec
Format profile : LC
Codec ID : mp4a-40-2
Duration : 1 h 53 min
Source duration : 1 h 53 min
Bit rate mode : Variable
Bit rate : 126 kb/s
Channel(s) : 2 channels
Channel positions : Front: L R
Sampling rate : 44.1 kHz
Frame rate : 43.066 FPS (1024 SPF)
Compression mode : Lossy
Stream size : 102 MiB (13%)
Source stream size : 102 MiB (13%)

About bappy

Leave a Reply

Your email address will not be published. Required fields are marked *

*

x

Check Also

Hate Story 4 2018 Hindi 720p

Hate Story 4 2018 Hindi 720p

IMDB :http://www.imdb.com/title/tt5325684/?ref_=nv_sr_2 IMDB Rating : 3.9/10 from 137 Users General Unique ID ...