Home / English / Avengers Infinity War (2018) English HDTS-Rip – 720p
Avengers Infinity War (2018) English HDTS-Rip - 720p

Avengers Infinity War (2018) English HDTS-Rip – 720p

Avengers: Infinity War 2018
156 min minutes – Action, Adventure, Fantasy
Ratings: N/A/10 from N/A users
Plot:The Avengers and their allies must be willing to sacrifice all in an attempt to defeat the powerful Thanos before his blitz of devastation and ruin puts an end to the universe.
Director:Anthony Russo, Joe Russo
Stars: Karen Gillan, Josh Brolin, Letitia Wright, Chris Evans
Language: English
Country: USA

Name Avengers Infinity War (2018) English HDTS-Rip - 720p
Size 781.49 MB
Date 20180427
Download Torrent Download

General
Complete name : Avengers Infinity War (2018) English HDTS-Rip – 720p – x264 – MP3 – 800MB TamilMV
Format : Matroska
Format version : Version 4 / Version 2
File size : 781 MiB
Duration : 2 h 17 min
Overall bit rate mode : Variable
Overall bit rate : 797 kb/s
Movie name : www.TamilMV.run
Encoded date : UTC 2018-04-26 17:14:54
Writing application : mkvmerge v7.1.0 (‘Good Love’) 32bit built on Jul 27 2014 12:59:18
Writing library : libebml v1.3.0 + libmatroska v1.4.1

Video
ID : 1
Format : AVC
Format/Info : Advanced Video Codec
Format profile : High@L3.1
Format settings : CABAC / 4 Ref Frames
Format settings, CABAC : Yes
Format settings, RefFrames : 4 frames
Codec ID : V_MPEG4/ISO/AVC
Duration : 2 h 17 min
Bit rate : 704 kb/s
Width : 1 280 pixels
Height : 496 pixels
Display aspect ratio : 2.581
Frame rate mode : Constant
Frame rate : 29.970 (30000/1001) FPS
Color space : YUV
Chroma subsampling : 4:2:0
Bit depth : 8 bits
Scan type : Progressive
Bits/(Pixel*Frame) : 0.037
Stream size : 691 MiB (88%)
Title : www.TamilMV.run
Writing library : x264 core 155 r2901 7d0ff22
Language : English
Default : Yes
Forced : No
Audio
ID : 2
Format : MPEG Audio
Format version : Version 1
Format profile : Layer 3
Format settings : Joint stereo / MS Stereo
Codec ID : A_MPEG/L3
Codec ID/Hint : MP3
Duration : 2 h 17 min
Bit rate mode : Variable
Bit rate : 90.2 kb/s
Nominal bit rate : 96.0 kb/s
Channel(s) : 2 channels
Sampling rate : 48.0 kHz
Frame rate : 41.667 FPS (1152 SPF)
Compression mode : Lossy
Stream size : 88.4 MiB (11%)
Title : www.TamilMV.run
Writing library : LAME3.99r
Encoding settings : -m j -V 4 -q 3 -lowpass 15.1 –abr 96
Language : English
Default : Yes
Forced : No

Screenshots

 







About bappy

Leave a Reply

Your email address will not be published. Required fields are marked *

*

x

Check Also

Downrange 2017 1080p Amazon WEB-DL DD+2.0.H.264

Downrange 2017 1080p Amazon WEB-DL DD+2.0.H.264

Downrange.2017.1080p.Amazon.WEB-DL.DD+2.0.H.264-QOQ IMDb: http://www.imdb.com/title/tt6138228/ Name Size Date Download Torrent Download (Duration): 1h 29mn ...