Home / English / Battlecreek 1080p Bluray
Battlecreek 1080p Bluray

Battlecreek 1080p Bluray

Battlecreek 2017
97 min minutes – Drama, Romance
Ratings: 8.3/10 from 96 users
Plot:Henry is a loner, living with his overprotective mother in a small Southern town called Battlecreek. Henry has a rare sin disease and must avoid sunlight. He lives his life at night — hanging out at the diner, working the night shift at the gas station and swimming in the creek under the moonlight. Henry doesn’t know who he is or what he wants, until he meets Alison. When Alison’s car breaks down in Battlecreek, she answers the “help wanted” sign at the diner to pay for the repair. Henry is immediately drawn to the mysterious girl. Alison shows Henry that he can live a life he thought impossible, even at the cost of losing his mom and freeing him from his past.
Director:Alison Eastwood
Stars: Bill Skarsgård, Paula Malcomson, Claire van der Boom, Delroy Lindo
Language: English
Country: USA
View on IMDB

 

Name Battlecreek 1080p Bluray
Size 1.51 GB
Date 20180213
Download Torrent

Format : MPEG-4
Format profile : Base Media
Codec ID : isom (isom/iso2/avc1/mp41)
File size : 1.51 GiB
Duration : 1 h 39 min
Overall bit rate : 2 170 kb/s
Writing application : Lavf58.2.103

Video
ID : 1
Format : AVC
Format/Info : Advanced Video Codec
Format profile : High@L4.1
Format settings, CABAC : Yes
Format settings, ReFrames : 4 frames
Codec ID : avc1
Codec ID/Info : Advanced Video Coding
Duration : 1 h 39 min
Bit rate : 2 050 kb/s
Width : 1 904 pixels
Height : 1 024 pixels
Display aspect ratio : 1.85:1
Frame rate mode : Constant
Frame rate : 23.976 (24000/1001) FPS
Color space : YUV
Chroma subsampling : 4:2:0
Bit depth : 8 bits
Scan type : Progressive
Bits/(Pixel*Frame) : 0.044
Stream size : 1.43 GiB (94%)
Writing library : x264 core 152
Encoding settings : cabac=1 / ref=4 / deblock=1:-1:-1 / *censored*yse=0x3:0x133 / me=umh / subme=9 / psy=1 / psy_rd=1.00:0.15 / mixed_ref=1 / me_range=24 / chroma_me=1 / trellis=2 / 8x8dct=1 / cqm=0 / deadzone=21,11 / fast_pskip=0 / chroma_qp_offset=-3 / threads=12 / lookahead_threads=1 / sliced_threads=0 / nr=0 / decimate=1 / interlaced=0 / bluray_compat=0 / constrained_intra=0 / bframes=3 / b_pyramid=2 / b_adapt=2 / b_bias=0 / direct=3 / weightb=1 / open_gop=0 / weightp=2 / keyint=250 / keyint_min=23 / scenecut=40 / intra_refresh=0 / rc_lookahead=60 / rc=2pass / mbtree=1 / bitrate=2050 / ratetol=1.0 / qcomp=0.60 / qpmin=0 / qpmax=69 / qpstep=4 / cplxblur=20.0 / qblur=0.5 / vbv_maxrate=31250 / vbv_bufsize=31250 / nal_hrd=none / filler=0 / ip_ratio=1.40 / aq=1:1.00

Audio
ID : 2
Format : AAC
Format/Info : Advanced Audio Codec
Format profile : LC
Codec ID : 40
Duration : 1 h 39 min
Duration_LastFrame : -11 ms
Bit rate mode : Constant
Bit rate : 115 kb/s
Channel(s) : 2 channels
Channel positions : Front: L R
Sampling rate : 48.0 kHz
Frame rate : 46.875 FPS (1024 spf)
Compression mode : Lossy
Stream size : 81.8 MiB (5%)
Default : Yes
Alternate group : 1

Screenshot:

  

About bappy

Leave a Reply

Your email address will not be published. Required fields are marked *

*

x

Check Also

Downrange 2017 1080p Amazon WEB-DL DD+2.0.H.264

Downrange 2017 1080p Amazon WEB-DL DD+2.0.H.264

Downrange.2017.1080p.Amazon.WEB-DL.DD+2.0.H.264-QOQ IMDb: http://www.imdb.com/title/tt6138228/ Name Size Date Download Torrent Download (Duration): 1h 29mn ...