Home / Bangla / Chaamp (2017) SDTV
Chaamp (2017) SDTV

Chaamp (2017) SDTV

Format : Matroska
Format version : Version 2
File size : 504 MiB
Duration : 2 h 28 min
Overall bit rate : 475 kb/s
Encoded date : UTC 2017-09-18 14:31:48
Writing application : mkvmerge v10.0.0 (‘To Drown In You’) 64bit
Writing library : libebml v1.3.4 + libmatroska v1.4.5

Name Chaamp (2017) SDTV
Size 929.13 MB
Date 20180205
Download Torrent

Video:
ID : 1
Format : AVC
Format/Info : Advanced Video Codec
Format profile : High@L4.1
Format settings, CABAC : Yes
Format settings, RefFrames : 10 frames
Codec ID : V_MPEG4/ISO/AVC
Duration : 2 h 28 min
Bit rate : 425 kb/s
Width : 640 pixels
Height : 272 pixels
Display aspect ratio : 2.35:1
Frame rate mode : Constant
Frame rate : 25.000 FPS
Color space : YUV
Chroma subsampling : 4:2:0
Bit depth : 8 bits
Scan type : Progressive
Bits/(Pixel*Frame) : 0.098
Stream size : 450 MiB (89%)
Writing library : x264 core 148 r2744 b97ae06
Encoding settings : cabac=1 / ref=10 / deblock=1:-2:-1 / *censored*yse=0x3:0x113 / me=umh / subme=5 / psy=1 / psy_rd=1.00:0.00 / mixed_ref=1 / me_range=16 / chroma_me=1 / trellis=2 / 8x8dct=1 / cqm=0 / deadzone=21,11 / fast_pskip=1 / chroma_qp_offset=0 / threads=8 / lookahead_threads=2 / sliced_threads=0 / nr=0 / decimate=0 / interlaced=0 / bluray_compat=0 / constrained_intra=0 / bframes=16 / b_pyramid=2 / b_adapt=1 / b_bias=0 / direct=3 / weightb=1 / open_gop=0 / weightp=2 / keyint=250 / keyint_min=25 / scenecut=40 / intra_refresh=0 / rc_lookahead=40 / rc=2pass / mbtree=0 / bitrate=425 / ratetol=1.0 / qcomp=0.60 / qpmin=10 / qpmax=51 / qpstep=4 / cplxblur=20.0 / qblur=0.5 / vbv_maxrate=62500 / vbv_bufsize=78125 / nal_hrd=none / filler=0 / ip_ratio=1.40 / pb_ratio=1.30 / aq=2:1.00
Default : Yes
Forced : No

Audio
ID : 2
Format : AAC
Format/Info : Advanced Audio Codec
Format profile : LC
Codec ID : A_AAC
Duration : 2 h 28 min
Bit rate : 48.0 kb/s
Channel(s) : 2 channels
Channel positions : Front: L R
Sampling rate : 48.0 kHz
Frame rate : 46.875 FPS (1024 SPF)
Compression mode : Lossy
Delay relative to video : 9 ms
Stream size : 50.9 MiB (10%)
Language : English
Default : Yes
Forced : No

 

Screenshot:






About bappy

Leave a Reply

Your email address will not be published. Required fields are marked *

*

x

Check Also

One (2017) - Bengali - WEBRip - x264 - AAC - ESubs

One (2017) – Bengali – WEBRip – x264 – AAC – ESubs

One 2017 148 min minutes – Thriller Ratings: 7.1/10 from 56 users ...