Home / English / The Cloverfield Paradox 1080p Bluray
The Cloverfield Paradox 1080p Bluray

The Cloverfield Paradox 1080p Bluray

The.Cloverfield.Paradox.2018.1080p.BluRay.x264-[YTS.AG].mp4
Format : MPEG-4
Format profile : Base Media
Codec ID : isom (isom/iso2/avc1/mp41)
File size : 1.55 GiB
Duration : 1 h 42 min
Overall bit rate : 2 172 kb/s
Writing application : Lavf58.2.103

Name
Size
Date
Download Torrent

ID : 1
Format : AVC
Format/Info : Advanced Video Codec
Format profile : High@L4.1
Format settings : CABAC / 4 Ref Frames
Format settings, CABAC : Yes
Format settings, RefFrames : 4 frames
Codec ID : avc1
Codec ID/Info : Advanced Video Coding
Duration : 1 h 42 min
Bit rate : 2 050 kb/s
Width : 1 920 pixels
Height : 800 pixels
Display aspect ratio : 2.40:1
Frame rate mode : Constant
Frame rate : 23.976 (24000/1001) FPS
Color space : YUV
Chroma subsampling : 4:2:0
Bit depth : 8 bits
Scan type : Progressive
Bits/(Pixel*Frame) : 0.056
Stream size : 1.47 GiB (94%)
Writing library : x264 core 152
Encoding settings : cabac=1 / ref=4 / deblock=1:-1:-1 / *censored*yse=0x3:0x133 / me=umh / subme=9 / psy=1 / psy_rd=1.00:0.15 / mixed_ref=1 / me_range=24 / chroma_me=1 / trellis=2 / 8x8dct=1 / cqm=0 / deadzone=21,11 / fast_pskip=0 / chroma_qp_offset=-3 / threads=12 / lookahead_threads=1 / sliced_threads=0 / nr=0 / decimate=1 / interlaced=0 / bluray_compat=0 / constrained_intra=0 / bframes=3 / b_pyramid=2 / b_adapt=2 / b_bias=0 / direct=3 / weightb=1 / open_gop=0 / weightp=2 / keyint=250 / keyint_min=23 / scenecut=40 / intra_refresh=0 / rc_lookahead=60 / rc=2pass / mbtree=1 / bitrate=2050 / ratetol=1.0 / qcomp=0.60 / qpmin=0 / qpmax=69 / qpstep=4 / cplxblur=20.0 / qblur=0.5 / vbv_maxrate=31250 / vbv_bufsize=31250 / nal_hrd=none / filler=0 / ip_ratio=1.40 / aq=1:1.00

ID : 2
Format : AAC
Format/Info : Advanced Audio Codec
Format profile : LC
Codec ID : mp4a-40-2
Duration : 1 h 41 min
Duration_LastFrame : -11 ms
Bit rate mode : Constant
Bit rate : 118 kb/s
Channel(s) : 2 channels
Channel positions : Front: L R
Sampling rate : 48.0 kHz
Frame rate : 46.875 FPS (1024 SPF)
Compression mode : Lossy
Stream size : 86.1 MiB (5%)
Default : Yes
Alternate group : 1

Screenshot:

About bappy

Leave a Reply

Your email address will not be published. Required fields are marked *

*

x

Check Also

What Happened to Monday 1080p Bluray

What Happened to Monday 1080p Bluray

In a not so distant future, where overpopulation and famine have forced ...