Home / Bangla / Cockpit (2017) – Bengali Movie – 2CD – DTH Rip[x264 – AC3]
Cockpit (2017) - Bengali Movie - 2CD - DTH Rip[x264 - AC3]

Cockpit (2017) – Bengali Movie – 2CD – DTH Rip[x264 – AC3]

Cockpit 2017
140 min minutes – Adventure, Drama
Ratings: 7.7/10 from 234 users
Plot:Cockpit is a story based on true incidents. The story follows a flight that is going from Mumbai to Calcutta and gets hit from bad turbulent weather. The film will follow as the pilot, …
Director:Kamaleswar Mukherjee
Stars: Paran Banerjee, Ambarish Bhattacharya, Raj Chakraborty, Dev
Language: Bengali
Country: India

Name Cockpit (2017) - Bengali Movie - 2CD - DTH Rip[x264 - AC3]
Size 1.40 GB
Date 20180120
Download Torrent

General
Format : Matroska
Format version : Version 2
File size : 1.40 GiB
Duration : 2 h 37 min

Video
ID : 1
Format : AVC
Format/Info : Advanced Video Codec
Format profile : High@L3
Format settings : CABAC / 4 Ref Frames
Format settings, CABAC : Yes
Format settings, RefFrames : 4 frames
Codec ID : V_MPEG4/ISO/AVC
Duration : 2 h 37 min
Bit rate : 1 081 kb/s
Width : 720 pixels
Height : 304 pixels
Display aspect ratio : 2.35:1
Frame rate mode : Constant
Frame rate : 25.000 FPS
Color space : YUV
Chroma subsampling : 4:2:0
Bit depth : 8 bits
Scan type : Progressive
Bits/(Pixel*Frame) : 0.198
Stream size : 1.19 GiB (85%)

Audio
ID : 2
Format : AC-3
Format/Info : Audio Coding 3
Codec ID : A_AC3
Duration : 2 h 37 min
Bit rate mode : Constant
Bit rate : 192 kb/s
Channel(s) : 6 channels
Channel positions : Front: L C R, Side: L R, LFE
Sampling rate : 48.0 kHz
Stream size : 216 MiB (15%)

 

Thumbnail

About bappy

Leave a Reply

Your email address will not be published. Required fields are marked *

*

x

Check Also

One (2017) - Bengali - WEBRip - x264 - AAC - ESubs

One (2017) – Bengali – WEBRip – x264 – AAC – ESubs

One 2017 148 min minutes – Thriller Ratings: 7.1/10 from 56 users ...