Home / English / Confessions of a Teenage Jesus Jerk 2017 1080p WEBRip
Confessions of a Teenage Jesus Jerk 2017 1080p WEBRip

Confessions of a Teenage Jesus Jerk 2017 1080p WEBRip

Confessions of a Teenage Jesus Jerk 2017
95 min minutes – Comedy, Drama, Romance
Ratings: N/A/10 from N/A users
Plot:A teenage boy comes of age during the Reagan years, discovering that he really enjoys many pleasurable things that his family- and his religion- frown upon…
Director:Eric Stoltz
Stars: Paul Adelstein, Reed Diamond, David Hedison, Tara Summers
Language: English
Country: USA

Name Confessions of a Teenage Jesus Jerk 2017 1080p WEBRip
Size 7.65 GB
Date 20180424
Download Torrent Download

A teenage boy comes of age during the Reagan years, discovering that he really enjoys many pleasurable things that his family- and his religion- frown upon…
Actors: Paul Adelstein, Reed Diamond, David Hedison, Tara Summers
Awards: N/A
Country: USA

General
Unique ID : 149344481461888560959921687878678130077 (0x705AB36D5F63440FF319BEEB9800AD9D)
Complete name : Confessions of a Teenage Jesus Jerk 2017 1080p WEB-DL DD5 1 H264-CMRG.mkv
Format : Matroska
Format version : Version 4 / Version 2
File size : 3.73 GiB
Duration : 1h 36mn
Overall bit rate : 5 568 Kbps
Encoded date : UTC 2018-04-22 19:33:06
Writing application : mkvmerge v19.0.0 (‘Brave Captain’) 64-bit
Writing library : libebml v1.3.5 + libmatroska v1.4.8

Video
ID : 1
Format : AVC
Format/Info : Advanced Video Codec
Format profile : High@L4
Format settings, CABAC : Yes
Format settings, ReFrames : 4 frames
Codec ID : V_MPEG4/ISO/AVC
Duration : 1h 36mn
Bit rate : 5 182 Kbps
Width : 1 908 pixels
Height : 1 068 pixels
Display aspect ratio : 16:9
Frame rate mode : Constant
Frame rate : 23.976 (24000/1001) fps
Color space : YUV
Chroma subsampling : 4:2:0
Bit depth : 8 bits
Scan type : Progressive
Bits/(Pixel*Frame) : 0.106
Stream size : 3.48 GiB (93%)
Language : English
Default : Yes
Forced : No
Color range : Limited
Color primaries : BT.709
Transfer characteristics : BT.709
Matrix coefficients : BT.709

Audio
ID : 2
Format : AC-3
Format/Info : Audio Coding 3
Mode extension : CM (complete main)
Format settings, Endianness : Big
Codec ID : A_AC3
Duration : 1h 36mn
Bit rate mode : Constant
Bit rate : 384 Kbps
Channel(s) : 6 channels
Channel positions : Front: L C R, Side: L R, LFE
Sampling rate : 48.0 KHz
Frame rate : 31.250 fps (1536 spf)
Compression mode : Lossy
Delay relative to video : -42ms
Stream size : 264 MiB (7%)
Language : English
Default : Yes
Forced : No

Image result for Confessions of a Teenage Jesus Jerk 2017 1080p WEBRip

 

About bappy

Leave a Reply

Your email address will not be published. Required fields are marked *

*

x

Check Also

Downrange 2017 1080p Amazon WEB-DL DD+2.0.H.264

Downrange 2017 1080p Amazon WEB-DL DD+2.0.H.264

Downrange.2017.1080p.Amazon.WEB-DL.DD+2.0.H.264-QOQ IMDb: http://www.imdb.com/title/tt6138228/ Name Size Date Download Torrent Download (Duration): 1h 29mn ...