Home / English / Control 1080p Bluray
Control 1080p Bluray

Control 1080p Bluray

The once unconditional friendship between police officers Vincke and Verstuyft hits a very rough patch when they come up against a series of gruesome murders. Complicating matters even further, a survivor of the killer drives a wedge between them when Verstuyft falls for her charms. Meanwhile, the serial killer has a new victim in sight…

Name Control 1080p Bluray
Size 2.04 GB
Date 20180328
Download Torrent Download

Het Tweede Gelaat 2017
N/A minutes – Action, Crime, Drama
Ratings: N/A/10 from N/A users
Plot:N/A
Director:Jan Verheyen
Stars: Koen De Bouw, Filip Peeters, Hilde De Baerdemaeker, Werner De Smedt
Language: Dutch
Country: Belgium

The once unconditional friendship between police officers Vincke and Verstuyft hits a very rough patch when they come up against a series of gruesome murders. Complicating matters even … See full summary »
Director: Jan Verheyen
Writers: Jef Geeraerts (novel), Carl Joos
Stars: Koen De Bouw, Werner De Smedt, Greg Timmermans

Format : MPEG-4
Format profile : Base Media
Codec ID : isom
File size : 1.07 GiB
Duration : 2h 6mn
Overall bit rate : 1 204 Kbps
Writing application : Lavf58.9.100

Video
ID : 1
Format : AVC
Format/Info : Advanced Video Codec
Format profile : High@L4.1
Format settings, CABAC : Yes
Format settings, ReFrames : 4 frames
Codec ID : avc1
Codec ID/Info : Advanced Video Coding
Duration : 2h 6mn
Bit rate : 1 050 Kbps
Width : 1 280 pixels
Height : 534 pixels
Display aspect ratio : 2.40:1
Original display aspect rat : 2.40:1
Frame rate mode : Constant
Frame rate : 24.000 fps
Color space : YUV
Chroma subsampling : 4:2:0
Bit depth : 8 bits
Scan type : Progressive
Bits/(Pixel*Frame) : 0.064
Stream size : 953 MiB (87%)
Writing library : x264 core 155
Encoding settings : cabac=1 / ref=4 / deblock=1:-1:-1 / *censored*yse=0x3:0x133 / me=umh / subme=9 / psy=1 / psy_rd=1.00:0.15 / mixed_ref=1 / me_range=24 / chroma_me=1 / trellis=2 / 8x8dct=1 / cqm=0 / deadzone=21,11 / fast_pskip=0 / chroma_qp_offset=-3 / threads=17 / lookahead_threads=1 / sliced_threads=0 / nr=0 / decimate=1 / interlaced=0 / bluray_compat=0 / constrained_intra=0 / bframes=3 / b_pyramid=2 / b_adapt=2 / b_bias=0 / direct=3 / weightb=1 / open_gop=0 / weightp=2 / keyint=250 / keyint_min=23 / scenecut=40 / intra_refresh=0 / rc_lookahead=60 / rc=2pass / mbtree=1 / bitrate=1050 / ratetol=1.0 / qcomp=0.60 / qpmin=0 / qpmax=69 / qpstep=4 / cplxblur=20.0 / qblur=0.5 / vbv_maxrate=31250 / vbv_bufsize=31250 / nal_hrd=none / filler=0 / ip_ratio=1.40 / aq=1:1.00

Audio
ID : 2
Format : AAC
Format/Info : Advanced Audio Codec
Format profile : LC
Codec ID : 40
Duration : 2h 6mn
Bit rate mode : Constant
Bit rate : 147 Kbps
Channel(s) : 2 channels
Channel positions : Front: L R
Sampling rate : 48.0 KHz
Compression mode : Lossy
Stream size : 134 MiB (12%)

Screenshots

  

About bappy

Leave a Reply

Your email address will not be published. Required fields are marked *

*

x

Check Also

Downrange 2017 1080p Amazon WEB-DL DD+2.0.H.264

Downrange 2017 1080p Amazon WEB-DL DD+2.0.H.264

Downrange.2017.1080p.Amazon.WEB-DL.DD+2.0.H.264-QOQ IMDb: http://www.imdb.com/title/tt6138228/ Name Size Date Download Torrent Download (Duration): 1h 29mn ...