Home / English / Corbin Nash 2018 1080p WEB-DL DD5
Corbin Nash 2018 1080p WEB-DL DD5

Corbin Nash 2018 1080p WEB-DL DD5

Corbin Nash 2014
N/A minutes – Action, Horror, Thriller
Ratings: N/A/10 from N/A users
Plot:One night, one reporter is unwittingly set to make history by uncovering one of Hollywood’s darkest secrets by teaming up with an Urban Legend, LA’s most infamous vigilante, but nothing could prepare him for what he is about to discover.
Director:Ben Jagger
Stars: Dean S. Jagger
Language: English
Country: USA

Name Corbin Nash 2018 1080p WEB-DL DD5
Size 1.53 GB
Date 20180428
Download Torrent Download

Set in a bloodthirsty Los Angeles, one rogue detective’s (Dean S. Jagger) obsessive search for the truth behind his parents’ murders leads him to confront a monstrous duo of Queeny (Corey Feldman) and Vince (Richard Wagner) who drag him into a Hellish nightmare he was never prepared for. Lost to an underworld of horrors dating back to the dawn of time, he soon discovers that he is actually the last surviving member of the Nash family, a historic clan of demon hunters. As he is forced to acknowledge a foreboding destiny, he is attacked and brutally left for dead, only to be recovered by Macy (Fernanda Romero), a pure soul who is led by the mysterious Blind Prophet (Malcolm McDowell). At last, Detective Nash is reborn the ultimate killer. Seeking vengeance he wages a violent war on the Beasts that roam the darkness of this world, finally embracing his true legacy – CORBIN NASH, Demon Hunter. Rutger Hauer and Bruce Davison co-star.

General
Unique ID : 94267722736579357591461922350400774349 (0x46EB4D917526AFF42BCDB821B16FA0CD)
Complete name : Corbin Nash 2018 1080p WEB-DL DD5 1 H264-CMRG.mkv
Format : Matroska
Format version : Version 4 / Version 2
File size : 3.58 GiB
Duration : 1h 34mn
Overall bit rate : 5 397 Kbps
Encoded date : UTC 2018-04-20 04:36:50
Writing application : mkvmerge v19.0.0 (‘Brave Captain’) 64-bit
Writing library : libebml v1.3.5 + libmatroska v1.4.8

Video
ID : 1
Format : AVC
Format/Info : Advanced Video Codec
Format profile : High@L4
Format settings, CABAC : Yes
Format settings, ReFrames : 4 frames
Codec ID : V_MPEG4/ISO/AVC
Duration : 1h 34mn
Bit rate : 5 012 Kbps
Width : 1 904 pixels
Height : 1 064 pixels
Display aspect ratio : 16:9
Frame rate mode : Constant
Frame rate : 23.976 (24000/1001) fps
Color space : YUV
Chroma subsampling : 4:2:0
Bit depth : 8 bits
Scan type : Progressive
Bits/(Pixel*Frame) : 0.103
Stream size : 3.32 GiB (93%)
Language : English
Default : Yes
Forced : No
Color range : Limited
Color primaries : BT.709
Transfer characteristics : BT.709
Matrix coefficients : BT.709

Audio
ID : 2
Format : AC-3
Format/Info : Audio Coding 3
Mode extension : CM (complete main)
Format settings, Endianness : Big
Codec ID : A_AC3
Duration : 1h 34mn
Bit rate mode : Constant
Bit rate : 384 Kbps
Channel(s) : 6 channels
Channel positions : Front: L C R, Side: L R, LFE
Sampling rate : 48.0 KHz
Frame rate : 31.250 fps (1536 spf)
Compression mode : Lossy
Delay relative to video : -42ms
Stream size : 261 MiB (7%)
Language : English
Default : Yes
Forced : No

 



About bappy

Leave a Reply

Your email address will not be published. Required fields are marked *

*

x

Check Also

What Happened to Monday 1080p Bluray

What Happened to Monday 1080p Bluray

In a not so distant future, where overpopulation and famine have forced ...