Home / English / Day of the Dead: Bloodline 1080p Bluray
Day of the Dead: Bloodline 1080p Bluray

Day of the Dead: Bloodline 1080p Bluray

Day of the Dead: Bloodline 2018
90 min minutes – Horror
Ratings: 3.4/10 from 1,752 users
Plot:A small group of military personnel and survivalists dwell in an underground bunker as they seek to find a cure in a world overrun by zombies.
Director:Hèctor Hernández Vicens
Stars: Sophie Skelton, Johnathon Schaech, Jeff Gum, Marcus Vanco
Language: English
Country: Bulgaria
View on IMDB

Name Day of the Dead: Bloodline 1080p Bluray
Size 1.37 GB
Date 20180213
Download Torrent

General
Format : MPEG-4
Format profile : Base Media
Codec ID : isom (isom/avc1)
File size : 1.30 GiB
Duration : 1 h 30 min
Overall bit rate : 2 054 kb/s
Movie name : Day.of.the.Dead.Bloodline.2018.1080p.WEB-DL.H264-NAYEEM
Encoded date : UTC 2018-01-06 10:29:48
Tagged date : UTC 2018-01-07 18:32:15
Comment : Encoded by NAYEEM

Video
ID : 1
Format : AVC
Format/Info : Advanced Video Codec
Format profile : High@L4
Format settings, CABAC : Yes
Format settings, RefFrames : 4 frames
Codec ID : avc1
Codec ID/Info : Advanced Video Coding
Duration : 1 h 30 min
Bit rate : 1 668 kb/s
Maximum bit rate : 10.6 Mb/s
Width : 1 904 pixels
Height : 792 pixels
Display aspect ratio : 2.40:1
Frame rate mode : Constant
Frame rate : 23.976 (24000/1001) FPS
Color space : YUV
Chroma subsampling : 4:2:0
Bit depth : 8 bits
Scan type : Progressive
Bits/(Pixel*Frame) : 0.046
Stream size : 1.05 GiB (81%)
Writing library : x264 core 152 r2851 ba24899
Encoded date : UTC 2018-01-06 10:29:48
Tagged date : UTC 2018-01-06 10:30:56

Audio
ID : 2
Format : AC-3
Format/Info : Audio Coding 3
Format settings, Endianness : Big
Codec ID : ac-3
Duration : 1 h 30 min
Bit rate mode : Constant
Bit rate : 384 kb/s
Maximum bit rate : 406 kb/s
Channel(s) : 6 channels
Channel positions : Front: L C R, Side: L R, LFE
Sampling rate : 48.0 kHz
Frame rate : 31.250 FPS (1536 SPF)
Bit depth : 16 bits
Compression mode : Lossy
Stream size : 249 MiB (19%)
Language : English
Service kind : Complete Main
Encoded date : UTC 2018-01-06 10:30:43
Tagged date : UTC 2018-01-06 10:30:56

Screenshot:









About bappy

Leave a Reply

Your email address will not be published. Required fields are marked *

*

x

Check Also

Downrange 2017 1080p Amazon WEB-DL DD+2.0.H.264

Downrange 2017 1080p Amazon WEB-DL DD+2.0.H.264

Downrange.2017.1080p.Amazon.WEB-DL.DD+2.0.H.264-QOQ IMDb: http://www.imdb.com/title/tt6138228/ Name Size Date Download Torrent Download (Duration): 1h 29mn ...