Home / Hindi / Devdas 2002 1080p WebHD
Devdas 2002 1080p WebHD

Devdas 2002 1080p WebHD

Plot: The son of Zamindar Narayan Mukherjee, Devdas (Shahrukh Khan) was born with a silver s*censored* in his mouth. He grew up in the lush village of Taj Sonapur, where he spent his childhood, indulged by his lovely playmate Paro (Aishwarya). They grew up sharing a special relationship, in which they existed only to each other. Oblivious of all the differences of status and background, a bond that would never break grew between them. Slowly, it changed to love but it was still unsaid. But the reverie was broken when his family sent Devdas to London for education. Paro’s world crashed knowing that her Devdas would be gone and she lit a diya, for it signified the fast coming back of her loved one. Years passed and Devdas returned. Devdas was besotted by her stunning beauty and longed to have her back. But Zamindar Narayan Mukherjee (Vijay Crishna), Devdas’ father, met Paro’s mother Sumitra’s (Kiran Kher) marriage proposal with condescending arrogance. It caused a rift between the families and even though Devdas tried to convince his father, only antagonism came his way. Finally, he moved away from Paro and wrote a letter to her, asking her to forget him. Only, he didn’t realize that he would never be able to forget her ever! And much later, when he reached out to her, it was too late as she was far too humiliated. She scorned him for not standing by her and they parted forever with a heart-broken Paro entering into a chaste marriage with a wealthy, much older man, Zamindar Bhuvan (Vijayendra Ghagte), while a shattered Devdas walked towards anguish, alcoholism & Chandramukhi (Madhuri Dixit). Chandramukhi, a stunning courtesan instantly lost her heart to Devdas. A unique bond was formed between both as he could share with her the intense pain of his unfulfilled love for Paro. Meanwhile, Paro, on the other hand, performed her worldly duties sincerely, but inside her heart, she could never forget Devdas for a moment. Strange was the fate of Devdas. Intensely loved by two women, who were never meant to be his. One whom he could never love and one whom he could never stop loving…
Actors: Shah Rukh Khan, Madhuri Dixit, Aishwarya Rai Bachchan, Jackie Shroff
Awards: Nominated for 1 BAFTA Film Award. Another 44 wins & 7 nominations.
Country: India

Name Devdas (2002) 1080p WebHD
Size 7.95 GB
Date 20180305
Download Torrent

Media Info:

Code
General
Complete name : Devdas 2002 HD 1080.mkv
Format : Matroska
Format version : Version 4 / Version 2
File size : 2.99 GiB
Duration : 3 h 3 min
Language : Hindi
Overall bit rate : 2 342 kb/s
Movie name : [www.Kiks.Pk] – Devdas (2002) Hindi 1080p HDRip x264
Encoded date : UTC 2015-06-03 06:09:45
Writing application : mkvmerge v7.4.0 (‘Circles’) 64bit built on Dec 12 2014 12:19:56
Writing library : libebml v1.3.0 + libmatroska v1.4.1

Video
ID : 1
Format : AVC
Format/Info : Advanced Video Codec
Format profile : High@L4
Format settings : CABAC / 5 Ref Frames
Format settings, CABAC : Yes
Format settings, RefFrames : 5 frames
Codec ID : V_MPEG4/ISO/AVC
Duration : 3 h 3 min
Bit rate : 2 277 kb/s
Width : 1 920 pixels
Height : 816 pixels
Display aspect ratio : 2.35:1
Frame rate mode : Constant
Frame rate : 24.000 FPS
Color space : YUV
Chroma subsampling : 4:2:0
Bit depth : 8 bits
Scan type : Progressive
Bits/(Pixel*Frame) : 0.061
Stream size : 2.91 GiB (97%)
Title : Devdas (2002) Hindi 1080p HDRip x264

Audio
ID : 2
Format : AAC
Format/Info : Advanced Audio Codec
Format profile : HE-AAC / LC
Format settings : Explicit
Codec ID : A_AAC-2
Duration : 3 h 3 min
Bit rate : 64.0 kb/s
Channel(s) : 2 channels
Channel positions : Front: L R
Sampling rate : 48.0 kHz / 24.0 kHz
Frame rate : 23.438 FPS (1024 SPF)
Compression mode : Lossy
Delay relative to video : 31 ms
Stream size : 83.7 MiB (3%)

Text
Format : UTF-8
Codec ID : S_TEXT/UTF8
Codec ID/Info : UTF-8 Plain Text
Duration : 2 h 59 min
Bit rate : 50 b/s

Screenshots:

 






About bappy

Leave a Reply

Your email address will not be published. Required fields are marked *

*

x

Check Also

Downrange 2017 1080p Amazon WEB-DL DD+2.0.H.264

Downrange 2017 1080p Amazon WEB-DL DD+2.0.H.264

Downrange.2017.1080p.Amazon.WEB-DL.DD+2.0.H.264-QOQ IMDb: http://www.imdb.com/title/tt6138228/ Name Size Date Download Torrent Download (Duration): 1h 29mn ...