Home / Bangla / 18+Gandu 2010 720p WebDL ESub .mp4
Gandu.2010.720p

18+Gandu 2010 720p WebDL ESub .mp4

Gandu.-Bengali.(2010).1080p.HD.WEBDL.DD.2.0.Team.Jio.Exclusive

Format : Matroska
Format version : Version 4 / Version 2
File size : 3.83 GiB
Duration : 1 h 25 min
Overall bit rate : 6 410 kb/s
Movie name : Team JIO Exclusive
Encoded date : UTC 2018-01-05 17:56:56
Writing application : mkvmerge v19.0.0 (‘Brave Captain’) 64-bit
Writing library : libebml v1.3.5 + libmatroska v1.4.8

Name 18+Gandu 2010 720p WebDL ESub .mp4
Size 2.76 GB
Date 20180205
Download Torrent

Video
ID : 2
Format : AVC
Format/Info : Advanced Video Codec
Format profile : Main@L4
Format settings : CABAC / 2 Ref Frames
Format settings, CABAC : Yes
Format settings, ReFrames : 2 frames
Format settings, GOP : M=1, N=12
Codec ID : V_MPEG4/ISO/AVC
Duration : 1 h 25 min
Bit rate : 6 314 kb/s
Width : 1 920 pixels
Height : 1 080 pixels
Display aspect ratio : 16:9
Frame rate mode : Constant
Frame rate : 23.976 (23976/1000) FPS
Color space : YUV
Chroma subsampling : 4:2:0
Bit depth : 8 bits
Scan type : Progressive
Bits/(Pixel*Frame) : 0.127
Stream size : 3.77 GiB (98%)
Title : Team Jio
Default : Yes
Forced : No

Audio
ID : 1
Format : AAC
Format/Info : Advanced Audio Codec
Format profile : HE-AAC / LC
Format settings : Implicit
Codec ID : A_AAC-2
Duration : 1 h 25 min
Bit rate : 96.0 kb/s
Channel(s) : 2 channels
Channel positions : Front: L R
Sampling rate : 48.0 kHz / 24.0 kHz
Frame rate : 23.438 FPS (1024 SPF)
Compression mode : Lossy
Delay relative to video : -42 ms
Stream size : 58.0 MiB (1%)
Title : Team Jio
Language : Bengali
Default : Yes
Forced : No




About bappy

Leave a Reply

Your email address will not be published. Required fields are marked *

*

x

Check Also

Downrange 2017 1080p Amazon WEB-DL DD+2.0.H.264

Downrange 2017 1080p Amazon WEB-DL DD+2.0.H.264

Downrange.2017.1080p.Amazon.WEB-DL.DD+2.0.H.264-QOQ IMDb: http://www.imdb.com/title/tt6138228/ Name Size Date Download Torrent Download (Duration): 1h 29mn ...