Home / Movie / Geostorm 2017 1080p BluRay x264 [1.8GB]
Geostorm 2017 1080p BluRay x264 [1.8GB]

Geostorm 2017 1080p BluRay x264 [1.8GB]

Format : MPEG-4
Format profile : Base Media
Codec ID : isom
File size : 1.82 GiB
Duration : 1h 49mn
Overall bit rate mode : Variable
Overall bit rate : 2 393 Kbps
Encoded date : UTC 2018-01-16 08:55:06
Tagged date : UTC 2018-01-16 08:55:06

Name
Size
Date
Download Torrent

Video
ID : 1
Format : AVC
Format/Info : Advanced Video Codec
Format profile : High@L4.0
Format settings, CABAC : Yes
Format settings, ReFrames : 2 frames
Codec ID : avc1
Codec ID/Info : Advanced Video Coding
Duration : 1h 49mn
Bit rate : 2 263 Kbps
Width : 1 920 pixels
Height : 800 pixels
Display aspect ratio : 2.40:1
Frame rate mode : Variable
Frame rate : 23.976 fps
Minimum frame rate : 23.974 fps
Maximum frame rate : 23.981 fps
Color space : YUV
Chroma subsampling : 4:2:0
Bit depth : 8 bits
Scan type : Progressive
Bits/(Pixel*Frame) : 0.061
Stream size : 1.73 GiB (95%)
Encoded date : UTC 2018-01-16 08:55:06
Tagged date : UTC 2018-01-16 08:55:06
Color primaries : BT.709-5, BT.1361, IEC 61966-2-4, SMPTE RP177
Transfer characteristics : BT.709-5, BT.1361
Matrix coefficients : BT.709-5, BT.1361, IEC 61966-2-4 709, SMPTE RP177

Audio
ID : 2
Format : AAC
Format/Info : Advanced Audio Codec
Format profile : LC
Codec ID : 40
Duration : 1h 49mn
Bit rate mode : Variable
Bit rate : 126 Kbps
Channel(s) : 2 channels
Channel positions : Front: L R
Sampling rate : 44.1 KHz
Compression mode : Lossy
Stream size : 98.0 MiB (5%)
Encoded date : UTC 2018-01-16 08:56:44
Tagged date : UTC 2018-01-16 08:56:44

About bappy

Leave a Reply

Your email address will not be published. Required fields are marked *

*

x

Check Also

What Happened to Monday 1080p Bluray

What Happened to Monday 1080p Bluray

In a not so distant future, where overpopulation and famine have forced ...