Home / English / Gook 2017 1080p Bluray
Gook 2017 1080p Bluray

Gook 2017 1080p Bluray

Gook 2017
94 min minutes – Drama
Ratings: 7.1/10 from 922 users
Plot:Eli and Daniel, two Korean American brothers, own a struggling shoe store and have an unlikely friendship with Kamilla, a street wise 11-year-old African American girl. Kamilla ditches school, Eli stresses about the store, and Daniel tries to have a good time. It’s just another typical day at the store until the Rodney King verdict is read and riots break out. With the chaos moving towards them, the trio is forced to defend the store while contemplating the future of their own personal dreams and the true meaning of family.
Director:Justin Chon
Stars: Simone Baker, Justin Chon, Curtiss Cook Jr., David So
Language: English, Korean
Country: USA

Name Gook 2017 1080p Bluray
Size 1.45 GB
Date 20180205
Download Torrent

General
Format : Matroska
Format version : Version 4 / Version 2
File size : 3.13 GiB
Duration : 1 h 35 min
Overall bit rate : 4 715 kb/s
Movie name : Gook
Encoded date : UTC 2017-12-03 11:20:21
Writing application : mkvmerge v14.0.0 (‘Flow’) 64bit
Writing library : libebml v1.3.4 + libmatroska v1.4.5

Video
ID : 1
Format : HEVC
Format/Info : High Efficiency Video Coding
Format profile : Main 10@L4@Main
Codec ID : V_MPEGH/ISO/HEVC
Duration : 1 h 35 min
Bit rate : 4 249 kb/s
Width : 1 920 pixels
Height : 804 pixels
Display aspect ratio : 2.40:1
Frame rate mode : Constant
Frame rate : 23.976 (24000/1001) FPS
Color space : YUV
Chroma subsampling : 4:2:0
Bit depth : 10 bits
Bits/(Pixel*Frame) : 0.115
Stream size : 2.82 GiB (90%)

Audio
ID : 2
Format : AAC
Format/Info : Advanced Audio Codec
Format profile : LC
Codec ID : A_AAC
Duration : 1 h 35 min
Bit rate : 457 kb/s
Channel(s) : 6 channels
Channel positions : Front: L C R, Side: L R, LFE
Sampling rate : 48.0 kHz
Frame rate : 46.875 FPS (1024 spf)
Compression mode : Lossy
Delay relative to video : 20 ms
Stream size : 311 MiB (10%)
Language : English
Default : Yes
Forced : No

About bappy

Leave a Reply

Your email address will not be published. Required fields are marked *

*

x

Check Also

18+ Rocco 2016 WEB-DL 1080p

18+ Rocco 2016 WEB-DL 1080p

Rocco Siffredi is to pornography what Mike Tyson is to boxing or ...