Home / English / The Great Invisible 1080p Bluray
The Great Invisible 1080p Bluray

The Great Invisible 1080p Bluray

The Great Invisible 2014
92 min minutes – Documentary
Ratings: 6.6/10 from 431 users
Plot:On April 20, 2010, the Deepwater Horizon oil rig exploded in the Gulf of Mexico. It killed 11 workers and caused the worst oil spill in American history. The explosion still haunts the lives of those most intimately affected, though the story has long ago faded from the front page. At once a fascinating corporate thriller, a heartbreaking human drama and a peek inside the walls of the secretive oil industry, “The Great Invisible” is the first documentary feature to go beyond the media coverage to examine the crisis in depth through the eyes of oil executives, survivors and Gulf Coast residents who experienced it first-hand and then were left to pick up the pieces while the world moved on.
Director:Margaret Brown
Stars: Meccah Boynton-Brown, Doug Brown, Bob Cavnar, Brent Coon
Language: English
Country: USA

Name The Great Invisible 1080p Bluray
Size 1.4 GB
Date 20180211
Download Torrent

IMDB :http://www.imdb.com/title/tt3567200/?ref_=fn_al_tt_1
IMDB Rating : 6.6/10 from
434 Users

General
Complete name :The Great Invisible (2014) [1080p] [YTS.]/The.Great.Invisible.2014.1080p.BluRay.x264-[YTS.].mp4
Format : MPEG-4
Format profile : Base Media
Codec ID : isom (isom/iso2/avc1/mp41)
File size : 1.40 GiB
Duration : 1h 32mn
Overall bit rate : 2 168 Kbps
Encoded date : UTC 1904-01-01 00:00:00
Tagged date : UTC 1904-01-01 00:00:00
Writing application : Lavf57.22.100

Video
ID : 1
Format : AVC
Format/Info : Advanced Video Codec
Format profile : High@L4.1
Format settings, CABAC : Yes
Format settings, ReFrames : 4 frames
Codec ID : avc1
Codec ID/Info : Advanced Video Coding
Duration : 1h 32mn
Bit rate : 2 050 Kbps
Width : 1 920 pixels
Height : 1 072 pixels
Display aspect ratio : 16:9
Frame rate mode : Constant
Frame rate : 23.976 (24000/1001) fps
Color space : YUV
Chroma subsampling : 4:2:0
Bit depth : 8 bits
Scan type : Progressive
Bits/(Pixel*Frame) : 0.042
Stream size : 1.32 GiB (95%)
Writing library : x264 core 148
Encoding settings : cabac=1 / ref=4 / deblock=1:-1:-1 / *censored*yse=0x3:0x133 / me=umh / subme=9 / psy=1 / psy_rd=1.00:0.15 / mixed_ref=1 / me_range=24 / chroma_me=1 / trellis=2 / 8x8dct=1 / cqm=0 / deadzone=21,11 / fast_pskip=0 / chroma_qp_offset=-3 / threads=12 / lookahead_threads=1 / sliced_threads=0 / nr=0 / decimate=1 / interlaced=0 / bluray_compat=0 / constrained_intra=0 / bframes=3 / b_pyramid=2 / b_adapt=2 / b_bias=0 / direct=3 / weightb=1 / open_gop=0 / weightp=2 / keyint=250 / keyint_min=23 / scenecut=40 / intra_refresh=0 / rc_lookahead=60 / rc=2pass / mbtree=1 / bitrate=2050 / ratetol=1.0 / qcomp=0.60 / qpmin=0 / qpmax=69 / qpstep=4 / cplxblur=20.0 / qblur=0.5 / vbv_maxrate=31250 / vbv_bufsize=31250 / nal_hrd=none / filler=0 / ip_ratio=1.40 / aq=1:1.00
Encoded date : UTC 1904-01-01 00:00:00
Tagged date : UTC 1904-01-01 00:00:00

Audio
ID : 2
Format : AAC
Format/Info : Advanced Audio Codec
Format profile : LC
Codec ID : 40
Duration : 1h 32mn
Duration_LastFrame : -11ms
Bit rate mode : Constant
Bit rate : 113 Kbps
Channel(s) : 2 channels
Channel positions : Front: L R
Sampling rate : 48.0 KHz
Frame rate : 46.875 fps (1024 spf)
Compression mode : Lossy
Stream size : 74.5 MiB (5%)
Default : Yes
Alternate group : 1
Encoded date : UTC 1904-01-01 00:00:00
Tagged date : UTC 1904-01-01 00:00:00

About bappy

Leave a Reply

Your email address will not be published. Required fields are marked *

*

x

Check Also

Downrange 2017 1080p Amazon WEB-DL DD+2.0.H.264

Downrange 2017 1080p Amazon WEB-DL DD+2.0.H.264

Downrange.2017.1080p.Amazon.WEB-DL.DD+2.0.H.264-QOQ IMDb: http://www.imdb.com/title/tt6138228/ Name Size Date Download Torrent Download (Duration): 1h 29mn ...