Home / Hindi / Hate Story 4 2018 Hindi 720p
Hate Story 4 2018 Hindi 720p

Hate Story 4 2018 Hindi 720p

IMDB :http://www.imdb.com/title/tt5325684/?ref_=nv_sr_2
IMDB Rating : 3.9/10 from
137 Users

General
Unique ID : 242994651361359304857114637271256049444 (0xB6CF114A30469709B9F854261200A724)
Complete name : Hate Story 4 (201cool1.gif Hindi 720p DVDScr x264 AAC [LINK2DOWNLOAD].mkv
Format : Matroska
Format version : Version 4 / Version 2
File size : 1.24 GiB
Duration : 2 h 3 min
Overall bit rate : 1 428 kb/s
Movie name : link2download..Hate Story 4 (201cool1.gif Hindi 720p DVDScr x264 AAC
Encoded date : UTC 2018-03-11 09:19:47
Writing application : mkvmerge v7.0.0 (‘Where We Going’) 64bit built on Jun 9 2014 15:16:27
Writing library : libebml v1.3.0 + libmatroska v1.4.1
Attachments : 615f8407a6a2ef06fc5e8b75cad07129.jpg

Name Hate Story 4 (2018) Hindi - 720p - preDVDRip - x264 - 1.4GB
Size 1.48 GB
Date 20180311
Download Torrent

Video
ID : 1
Format : AVC
Format/Info : Advanced Video Codec
Format profile : Main@L3.1
Format settings : CABAC / 4 Ref Frames
Format settings, CABAC : Yes
Format settings, ReFrames : 4 frames
Codec ID : V_MPEG4/ISO/AVC
Duration : 2 h 3 min
Bit rate : 1 300 kb/s
Width : 1 280 pixels
Height : 544 pixels
Display aspect ratio : 2.35:1
Frame rate mode : Constant
Frame rate : 29.970 (30000/1001) FPS
Color space : YUV
Chroma subsampling : 4:2:0
Bit depth : 8 bits
Scan type : Progressive
Bits/(Pixel*Frame) : 0.062
Stream size : 1.12 GiB (91%)
Writing library : x264 core 119
Encoding settings : cabac=1 / ref=1 / deblock=1:0:0 / *censored*yse=0x1:0x1 / me=dia / subme=1 / psy=1 / psy_rd=1.00:0.00 / mixed_ref=0 / me_range=16 / chroma_me=1 / trellis=0 / 8x8dct=0 / cqm=0 / deadzone=21,11 / fast_pskip=1 / chroma_qp_offset=0 / threads=4 / sliced_threads=0 / nr=0 / decimate=1 / interlaced=0 / bluray_compat=0 / constrained_intra=0 / bframes=3 / b_pyramid=2 / b_adapt=1 / b_bias=0 / direct=1 / weightb=1 / open_gop=0 / weightp=1 / keyint=250 / keyint_min=25 / scenecut=40 / intra_refresh=0 / rc=abr / mbtree=0 / bitrate=1300 / ratetol=1.0 / qcomp=0.60 / qpmin=0 / qpmax=69 / qpstep=4 / ip_ratio=1.40 / pb_ratio=1.30 / aq=1:1.00
Default : Yes
Forced : No

Audio
ID : 2
Format : MPEG Audio
Format version : Version 1
Format profile : Layer 3
Format settings : Joint stereo / MS Stereo
Codec ID : A_MPEG/L3
Codec ID/Hint : MP3
Duration : 2 h 3 min
Bit rate mode : Constant
Bit rate : 128 kb/s
Channel(s) : 2 channels
Sampling rate : 48.0 kHz
Frame rate : 41.667 FPS (1152 SPF)
Compression mode : Lossy
Delay relative to video : -23 ms
Stream size : 113 MiB (9%)
Writing library : LAME3.98.4
Default : Yes
Forced : No

About bappy

Leave a Reply

Your email address will not be published. Required fields are marked *

*

x

Check Also

Downrange 2017 1080p Amazon WEB-DL DD+2.0.H.264

Downrange 2017 1080p Amazon WEB-DL DD+2.0.H.264

Downrange.2017.1080p.Amazon.WEB-DL.DD+2.0.H.264-QOQ IMDb: http://www.imdb.com/title/tt6138228/ Name Size Date Download Torrent Download (Duration): 1h 29mn ...