Home / English / Hercules 1080p Bluray
Hercules 1080p Bluray

Hercules 1080p Bluray

1400 B.C., a tormented soul walked the Earth that was neither man nor god. Hercules was the powerful son of the god king Zeus. For this, he received nothing but suffering his entire life. After twelve arduous labors, and the death of his family, this dark, world-weary soul turned his back on the gods finding his only solace in bloody battle. Over the years, he warmed to the company of six similar souls, their only bond being their love of fighting, and the presence of death. These men and women never question where they go to fight, or why, or whom, just how much they will be paid. Now, the King of Thrace has hired these mercenaries to train his men to become the greatest army of all time. It is time for this bunch of lost souls to finally have their eyes opened to how far they have fallen, when they must train an army to become as ruthless and bloodthirsty as their reputation has become.

Name Hercules 1080p Bluray
Size 1.64 GB
Date 20180311
Download Torrent

IMDB :http://www.imdb.com/title/tt1267297/?ref_=nv_sr_1
IMDB Rating : 6.0/10 from
128,138 Users

General
Complete name : Hercules (2014) EXTENDED CUT 720p Blu-Ray [Dual-Audio][English BD 5.1 + Hindi BD 5.1] – Mafiaking – Team TellyTNT .MP4
Format : MPEG-4
Format profile : Base Media / Version 2
Codec ID : mp42 (isom/iso2/avc1/mp41)
File size : 1.59 GiB
Duration : 1 h 41 min
Overall bit rate mode : Variable
Overall bit rate : 2 243 kb/s
Movie name :Hercules (2014) EXTENDED CUT 720p Blu-Ray [Dual-Audio][English BD 5.1 + Hindi BD 5.1] – Mafiaking – Team TellyTNT
Encoded date : UTC 2018-03-10 17:06:55
Tagged date : UTC 2018-03-10 17:06:55
Writing application : HandBrake 20171110181809-2a5df5a-master 2017111101

Video
ID : 1
Format : AVC
Format/Info : Advanced Video Codec
Format profile : Main@L3.1
Format settings : CABAC / 4 Ref Frames
Format settings, CABAC : Yes
Format settings, ReFrames : 4 frames
Codec ID : avc1
Codec ID/Info : Advanced Video Coding
Duration : 1 h 41 min
Bit rate : 2 000 kb/s
Width : 1 280 pixels
Height : 536 pixels
Display aspect ratio : 2.40:1
Frame rate mode : Constant
Frame rate : 30.000 FPS
Color space : YUV
Chroma subsampling : 4:2:0
Bit depth : 8 bits
Scan type : Progressive
Bits/(Pixel*Frame) : 0.097
Stream size : 1.41 GiB (88%)
Writing library : x264 core 148 r2795 aaa9aa8
Encoding settings : cabac=1 / ref=3 / deblock=1:0:0 / *censored*yse=0x1:0x111 / me=hex / subme=7 / psy=1 / psy_rd=1.00:0.00 / mixed_ref=1 / me_range=16 / chroma_me=1 / trellis=1 / 8x8dct=0 / cqm=0 / deadzone=21,11 / fast_pskip=1 / chroma_qp_offset=-2 / threads=2 / lookahead_threads=1 / sliced_threads=0 / nr=0 / decimate=1 / interlaced=0 / bluray_compat=0 / constrained_intra=0 / bframes=3 / b_pyramid=2 / b_adapt=1 / b_bias=0 / direct=1 / weightb=1 / open_gop=0 / weightp=2 / keyint=300 / keyint_min=30 / scenecut=40 / intra_refresh=0 / rc_lookahead=40 / rc=abr / mbtree=1 / bitrate=2000 / ratetol=1.0 / qcomp=0.60 / qpmin=0 / qpmax=69 / qpstep=4 / vbv_maxrate=14000 / vbv_bufsize=14000 / nal_hrd=none / filler=0 / ip_ratio=1.40 / aq=1:1.00
Encoded date : UTC 2018-03-10 17:06:55
Tagged date : UTC 2018-03-10 17:06:55
Color range : Limited
Color primaries : BT.709
Transfer characteristics : BT.709
Matrix coefficients : BT.709

Audio
ID : 2
Format : AAC
Format/Info : Advanced Audio Codec
Format profile : LC
Codec ID : mp4a-40-2
Duration : 1 h 41 min
Bit rate mode : Variable
Bit rate : 256 kb/s
Channel(s) : 2 channels
Channel positions : Front: L R
Sampling rate : 48.0 kHz
Frame rate : 46.875 FPS (1024 SPF)
Compression mode : Lossy
Stream size : 186 MiB (11%)
Title : Stereo / Stereo
Language : Hindi
Default : Yes
Alternate group : 1
Encoded date : UTC 2018-03-10 17:06:55
Tagged date : UTC 2018-03-10 17:06:5

About bappy

Leave a Reply

Your email address will not be published. Required fields are marked *

*

x

Check Also

What Happened to Monday 1080p Bluray

What Happened to Monday 1080p Bluray

In a not so distant future, where overpopulation and famine have forced ...