Home / English / Incoming 2018 1080p WEB-DL DD5
Incoming 2018 1080p WEB-DL DD5

Incoming 2018 1080p WEB-DL DD5

The International Space Station is now a prison – the ultimate black site. No one’s getting out. And no one knows it’s there. But when the imprisoned terrorists take over the Station and turn it into a missile aimed at Moscow, only a shuttle pilot and a rookie doctor can stop them. Their task is complicated by a rogue CIA agent (Scott Adkins) who has his own plans for the station and the terrorists within.

Name Incoming 2018 1080p WEB-DL DD5
Size 1.42 GB
Date 20180509
Download Torrent Download

Format : Matroska
Format version : Version 4 / Version 2
File size : 3.09 GiB
Duration : 1h 29mn
Overall bit rate : 4 969 Kbps
Encoded date : UTC 2018-05-08 14:21:00
Writing application : mkvmerge v19.0.0 (‘Brave Captain’) 64-bit
Writing library : libebml v1.3.5 + libmatroska v1.4.8

Video
ID : 1
Format : AVC
Format/Info : Advanced Video Codec
Format profile : High@L4
Format settings, CABAC : Yes
Format settings, ReFrames : 5 frames
Codec ID : V_MPEG4/ISO/AVC
Duration : 1h 29mn
Bit rate : 4 486 Kbps
Width : 1 920 pixels
Height : 848 pixels
Display aspect ratio : 2.25:1
Frame rate mode : Constant
Frame rate : 23.976 (24000/1001) fps
Color space : YUV
Chroma subsampling : 4:2:0
Bit depth : 8 bits
Scan type : Progressive
Bits/(Pixel*Frame) : 0.115
Stream size : 2.79 GiB (90%)
Language : English
Default : Yes
Forced : No
Color range : Limited
Color primaries : BT.709
Transfer characteristics : BT.709
Matrix coefficients : BT.709

Audio
ID : 2
Format : AC-3
Format/Info : Audio Coding 3
Mode extension : CM (complete main)
Format settings, Endianness : Big
Codec ID : A_AC3
Duration : 1h 29mn
Bit rate mode : Constant
Bit rate : 384 Kbps
Channel(s) : 6 channels
Channel positions : Front: L C R, Side: L R, LFE
Sampling rate : 48.0 KHz
Frame rate : 31.250 fps (1536 spf)
Compression mode : Lossy
Delay relative to video : -42ms
Stream size : 245 MiB (8%)
Language : English
Default : Yes
Forced : No







About bappy

Leave a Reply

Your email address will not be published. Required fields are marked *

*

x

Check Also

Black Panther 2018 Original 720p Bluray

Black Panther 2018 Original 720p Bluray

After the events of Captain America: Civil War, King T’Challa returns home ...