Home / Hindi / Jagga Jasoos (2017) 720p BluRay x264
Jagga Jasoos (2017) 720p BluRay x264

Jagga Jasoos (2017) 720p BluRay x264

Jagga Jasoos 2017
161 min minutes – Action, Adventure, Comedy
Ratings: 6.5/10 from 5,978 users
Plot:Join Jagga, a gifted teenage detective, who along with a female companion, is on a quest to find his missing father.
Director:Anurag Basu
Stars: Ranbir Kapoor, Katrina Kaif, Saswata Chatterjee, Chitrak Bandyopadhyay
Language: Hindi
Country: India

Name Jagga Jasoos (2017) 720p BluRay x264
Size 1.51 GB
Date 20180118
Download Torrent

father.
Actors: Ranbir Kapoor, Katrina Kaif, Saswata Chatterjee, Chitrak Bandyopadhyay
Awards: N/A
Country: India

General
Complete name : Jagga Jasoos 2017 [TorrentCounter.eu] Format : MPEG-4
Format profile : Base Media / Version 2
Codec ID : mp42 (isom/mp42)
File size : 1.51 GiB
Duration : 2 h 41 min
Overall bit rate mode : Variable
Overall bit rate : 1 337 kb/s
Encoded date : UTC 2018-01-01 03:52:23
Tagged date : UTC 2018-01-01 03:52:23
gsst : 0
gstd : 9707891

Video
ID : 1
Format : AVC
Format/Info : Advanced Video Codec
Format profile : Main@L3.1
Format settings : CABAC / 3 Ref Frames
Format settings, CABAC : Yes
Format settings, RefFrames : 3 frames
Codec ID : avc1
Codec ID/Info : Advanced Video Coding
Duration : 2 h 41 min
Bit rate : 1 208 kb/s
Width : 1 280 pixels
Height : 536 pixels
Display aspect ratio : 2.40:1
Frame rate mode : Constant
Frame rate : 24.000 FPS
Color space : YUV
Chroma subsampling : 4:2:0
Bit depth : 8 bits
Scan type : Progressive
Bits/(Pixel*Frame) : 0.073
Stream size : 1.37 GiB (90%)
Title : ISO Media file produced by Google Inc. Created on: 1⅔½017.
Encoded date : UTC 2018-01-01 03:52:23
Tagged date : UTC 2018-01-01 03:52:23
Color range : Limited
Color primaries : BT.709
Transfer characteristics : BT.709
Matrix coefficients : BT.709

Audio
ID : 2
Format : AAC
Format/Info : Advanced Audio Codec
Format profile : LC
Codec ID : mp4a-40-2
Duration : 2 h 41 min
Bit rate mode : Variable
Bit rate : 126 kb/s
Channel(s) : 2 channels
Channel positions : Front: L R
Sampling rate : 44.1 kHz
Frame rate : 43.066 FPS (1024 SPF)
Compression mode : Lossy
Stream size : 145 MiB (9%)
Title : ISO Media file produced by Google Inc. Created on: 1⅔½017.
Encoded date : UTC 2018-01-01 03:52:23
Tagged date : UTC 2018-01-01 03:52:23

About bappy

Leave a Reply

Your email address will not be published. Required fields are marked *

*

x

Check Also

Downrange 2017 1080p Amazon WEB-DL DD+2.0.H.264

Downrange 2017 1080p Amazon WEB-DL DD+2.0.H.264

Downrange.2017.1080p.Amazon.WEB-DL.DD+2.0.H.264-QOQ IMDb: http://www.imdb.com/title/tt6138228/ Name Size Date Download Torrent Download (Duration): 1h 29mn ...