Home / Bangla / Jio Pagla New Kolkata Bangla Full HD 720p
Jio Pagla New Kolkata Bangla Full HD 720p

Jio Pagla New Kolkata Bangla Full HD 720p

Jio Pagla New Kolkata Bangla Full Movie By Rabi Kinagi
Jishu, Soham, Hiran, Bonny, Srabanti, Payel, Ritika, Koushani & Others
————————————————————————
Copyright Disclaimer Under Section 107 of the Copyright Act 1976, allowance is made for “fair use” for purposes such as criticism, comment, news reporting, teaching, scholarship, and research. Fair use is a use permitted. “Fair Use” guidelines: www.copyright.gov/fls/fl102.html

Name Jio Pagla New Kolkata Bangla Full HD 720p
Size 728 MB
Date 20180309
Direct Download Jio Pagla New Kolkata Bangla Full HD Movie.mp4

Code

General
Format : Matroska
Format version : Version 2
File size : 1.40 GiB
Duration : 2 h 46 min

Video
ID : 1
Format : AVC
Format/Info : Advanced Video Codec
Format profile : High@L3
Format settings : CABAC / 4 Ref Frames
Format settings, CABAC : Yes
Format settings, RefFrames : 4 frames
Codec ID : V_MPEG4/ISO/AVC
Duration : 2 h 46 min
Bit rate : 1 074 kb/s
Width : 720 pixels
Height : 312 pixels
Display aspect ratio : 2.35:1
Frame rate mode : Constant
Frame rate : 25.000 FPS
Color space : YUV
Chroma subsampling : 4:2:0
Bit depth : 8 bits
Scan type : Progressive
Bits/(Pixel*Frame) : 0.191
Stream size : 1.25 GiB (89%)

Audio
ID : 2
Format : AAC
Format/Info : Advanced Audio Codec
Format profile : HE-AAC / LC
Format settings : Explicit
Codec ID : A_AAC-2
Duration : 2 h 46 min
Bit rate : 128 kb/s
Channel(s) : 6 channels
Channel positions : Front: L C R, Side: L R, LFE
Sampling rate : 48.0 kHz
Stream size : 152 MiB (11%)

Image result for jio pagla hd

Related image

About bappy

Leave a Reply

Your email address will not be published. Required fields are marked *

*

x

Check Also

Downrange 2017 1080p Amazon WEB-DL DD+2.0.H.264

Downrange 2017 1080p Amazon WEB-DL DD+2.0.H.264

Downrange.2017.1080p.Amazon.WEB-DL.DD+2.0.H.264-QOQ IMDb: http://www.imdb.com/title/tt6138228/ Name Size Date Download Torrent Download (Duration): 1h 29mn ...