Home / English / Lazer Team 2 2018 1080p BluRay
Lazer Team 2 2018 1080p BluRay

Lazer Team 2 2018 1080p BluRay

Lazer Team 2015
102 min minutes – Action, Comedy, Sci-Fi
Ratings: 5.6/10 from 8,054 users
Plot:After thousands of years of thinking we are alone in the universe we decode a message (in the 60s) telling us we are not alone, and that the universe is a dangerous place and that we are going to be attacked. Luckily, the coded message came from a friendly alien race that fathered and protected us over the years. And now they are giving us the tools to fight back (in the form of power armor). But the delivery service takes a long time, and during those loooong decades waiting for that cargo ship to arrive with their one power suit, they choose a champion of earth to train to wear the suit and defend the earth! Then the ship finally arrives… Only to get shot down by 4 morons who play with the suit and ultimately get one piece each stuck to them. Now they need to work with the government to train these 4 morons with individual pieces attached to them. Will they save the day or will they stand around contemplating life?
Director:Matt Hullum
Stars: Burnie Burns, Gavin Free, Michael Jones, Colton Dunn
Language: English
Country: USA

Name Lazer Team 2 2018 1080p BluRay
Size 1.62 GB
Date 20180424
Download Torrent Download

Four losers are thrust into the position of saving the world when they stumble upon a UFO crash site and become genetically equipped to the battle suit on board.
Director: Matt Hullum
Writers: Burnie Burns (story), Burnie Burns (screenplay) | 3 more credits »
Stars: Burnie Burns, Gavin Free, Michael Jones |

Format : MPEG-4
Format profile : Base Media
Codec ID : isom
File size : 1.57 GiB
Duration : 1h 42mn
Overall bit rate : 2 198 Kbps
Writing application : Lavf57.23.100

Video
ID : 1
Format : AVC
Format/Info : Advanced Video Codec
Format profile : High@L4.1
Format settings, CABAC : Yes
Format settings, ReFrames : 4 frames
Codec ID : avc1
Codec ID/Info : Advanced Video Coding
Duration : 1h 42mn
Bit rate : 2 050 Kbps
Width : 1 920 pixels
Height : 800 pixels
Display aspect ratio : 2.40:1
Frame rate mode : Constant
Frame rate : 23.976 fps
Color space : YUV
Chroma subsampling : 4:2:0
Bit depth : 8 bits
Scan type : Progressive
Bits/(Pixel*Frame) : 0.056
Stream size : 1.47 GiB (93%)
Writing library : x264 core 148
Encoding settings : cabac=1 / ref=4 / deblock=1:-1:-1 / *censored*yse=0x3:0x133 / me=umh / subme=9 / psy=1 / psy_rd=1.00:0.15 / mixed_ref=1 / me_range=24 / chroma_me=1 / trellis=2 / 8x8dct=1 / cqm=0 / deadzone=21,11 / fast_pskip=0 / chroma_qp_offset=-3 / threads=12 / lookahead_threads=1 / sliced_threads=0 / nr=0 / decimate=1 / interlaced=0 / bluray_compat=0 / constrained_intra=0 / bframes=3 / b_pyramid=2 / b_adapt=2 / b_bias=0 / direct=3 / weightb=1 / open_gop=0 / weightp=2 / keyint=250 / keyint_min=23 / scenecut=40 / intra_refresh=0 / rc_lookahead=60 / rc=2pass / mbtree=1 / bitrate=2050 / ratetol=1.0 / qcomp=0.60 / qpmin=0 / qpmax=69 / qpstep=4 / cplxblur=20.0 / qblur=0.5 / vbv_maxrate=31250 / vbv_bufsize=31250 / nal_hrd=none / filler=0 / ip_ratio=1.40 / aq=1:1.00

Audio
ID : 2
Format : AAC
Format/Info : Advanced Audio Codec
Format profile : LC
Codec ID : 40
Duration : 1h 42mn
Duration_LastFrame : -11ms
Bit rate mode : Constant
Bit rate : 144 Kbps
Channel(s) : 2 channels
Channel positions : Front: L R
Sampling rate : 48.0 KHz
Compression mode : Lossy
Stream size : 105 MiB (7%)

  

About bappy

Leave a Reply

Your email address will not be published. Required fields are marked *

*

x

Check Also

What Happened to Monday 1080p Bluray

What Happened to Monday 1080p Bluray

In a not so distant future, where overpopulation and famine have forced ...