Home / English / Naledi: A Baby Elephant’s Tale 1080p
Naledi: A Baby Elephant's Tale 1080p

Naledi: A Baby Elephant’s Tale 1080p

Naledi: A Baby Elephant’s Tale 2016
90 min minutes – Documentary
Ratings: 8.1/10 from 85 users
Plot:The incredible, true-life story of a baby elephant born into a rescue camp in the wilderness of Botswana. When she’s suddenly orphaned at one month of age, it’s up to the men who look after her herd to save her life.
Director:Ben Bowie, Geoffrey Luck
Stars: N/A
Language: English
Country: USA, Botswana

Name
Size
Date
Download Torrent

The incredible, true-life story of a baby elephant born into a rescue camp in the wilderness of Botswana. When she’s suddenly orphaned at one month of age, it’s up to the men who look after her herd to save her life.

Actors: N/A
Awards: 1 nominations.
Country: USA, Botswana
Director:Ben Bowie, Geoffrey Luck (as Geoff Luck)
Writer: Unknown

omplete name : Naledi A Baby Elephant’s Tale 2016 720p BluRay x264-YIFY
Format : MPEG-4
Format profile : Base Media
Codec ID : isom (isom/iso2/avc1/mp41)
File size : 662 MiB
Duration : 1 h 30 min
Overall bit rate : 1 021 kb/s
Writing application : Lavf57.22.100

Video

Format : AVC
Format/Info : Advanced Video Codec
Format profile : High@L4.1
Format settings : CABAC / 4 Ref Frames
Format settings, CABAC : Yes
Format settings, RefFrames : 4 frames
Codec ID : avc1
Codec ID/Info : Advanced Video Coding
Duration : 1 h 30 min
Bit rate : 900 kb/s
Width : 1 280 pixels
Height : 688 pixels
Display aspect ratio : 1.85:1
Frame rate mode : Constant
Frame rate : 25.000 FPS
Color space : YUV
Chroma subsampling : 4:2:0
Bit depth : 8 bits
Scan type : Progressive
Bits/(Pixel*Frame) : 0.041
Stream size : 583 MiB (88%)
Writing library : x264 core 148

Audio

Format : AAC
Format/Info : Advanced Audio Codec
Format profile : LC
Codec ID : mp4a-40-2
Duration : 1 h 30 min
Duration_LastFrame : -11 ms
Bit rate mode : Constant
Bit rate : 116 kb/s
Channel(s) : 2 channels
Channel positions : Front: L R
Sampling rate : 48.0 kHz
Frame rate : 46.875 FPS (1024 SPF)
Compression mode : Lossy
Stream size : 75.0 MiB (11%)
Default : Yes

About bappy

Leave a Reply

Your email address will not be published. Required fields are marked *

*

x

Check Also

What Happened to Monday 1080p Bluray

What Happened to Monday 1080p Bluray

In a not so distant future, where overpopulation and famine have forced ...