Home / English / Pacific Rim 2 Uprising 2018 -1080p
Pacific Rim 2 Uprising

Pacific Rim 2 Uprising 2018 -1080p

Pacific Rim: Uprising 2018
111 min minutes – Action, Adventure, Sci-Fi
Ratings: 6.0/10 from 13,591 users
Plot:Jake Pentecost, son of Stacker Pentecost, reunites with Mako Mori to lead a new generation of Jaeger pilots, including rival Lambert and 15-year-old hacker Amara, against a new Kaiju threat.
Director:Steven S. DeKnight
Stars: John Boyega, Scott Eastwood, Cailee Spaeny, Burn Gorman
Language: English, Mandarin
Country: USA, China
View on IMDB

Name Pacific Rim 2 Uprising 20181080p
Size 4.42 GB
Date 20180421
Download Torrent Download

Video
ID : 1
Format : AVC
Format/Info : Advanced Video Codec
Format profile : High@L4.1
Format settings : CABAC / 4 Ref Frames
Format settings, CABAC : Yes
Format settings, ReFrames : 4 frames
Codec ID : avc1
Codec ID/Info : Advanced Video Coding
Duration : 1 h 50 min
Bit rate : 5 500 kb/s
Width : 1 920 pixels
Height : 800 pixels
Display aspect ratio : 2.40:1
Frame rate mode : Constant
Frame rate : 29.970 (30000/1001) FPS
Color space : YUV
Chroma subsampling : 4:2:0
Bit depth : 8 bits
Scan type : Progressive
Bits/(Pixel*Frame) : 0.119
Stream size : 4.25 GiB (96%)
Title : Pacific.Rim.2.Uprising.2018.1080p.KORSUB.HDRip.x264.AAC2.0-STUTTERSHIT
Writing library : x264 core 148 r2795M aaa9aa8
Encoding settings : cabac=1 / ref=4 / deblock=1:0:0 / *censored*yse=0x3:0x113 / me=hex / subme=8 / psy=1 / psy_rd=1.00:0.00 / mixed_ref=1 / me_range=16 / chroma_me=1 / trellis=2 / 8x8dct=1 / cqm=0 / deadzone=21,11 / fast_pskip=1 / chroma_qp_offset=-2 / threads=40 / lookahead_threads=6 / sliced_threads=0 / nr=0 / decimate=1 / interlaced=0 / bluray_compat=0 / constrained_intra=0 / bframes=3 / b_pyramid=2 / b_adapt=1 / b_bias=0 / direct=3 / weightb=1 / open_gop=0 / weightp=2 / keyint=250 / keyint_min=25 / scenecut=40 / intra_refresh=0 / rc_lookahead=50 / rc=abr / mbtree=1 / bitrate=5500 / ratetol=1.0 / qcomp=0.60 / qpmin=0 / qpmax=69 / qpstep=4 / ip_ratio=1.40 / aq=1:1.00

Audio
ID : 2
Format : AAC
Format/Info : Advanced Audio Codec
Format profile : LC
Codec ID : mp4a-40-2
Duration : 1 h 50 min
Bit rate mode : Constant
Bit rate : 224 kb/s
Channel(s) : 2 channels
Channel positions : Front: L R
Sampling rate : 48.0 kHz
Frame rate : 46.875 FPS (1024 SPF)
Compression mode : Lossy
Stream size : 177 MiB (4%)
Title : Pacific.Rim.2.Uprising.2018.1080p.KORSUB.HDRip.x264.AAC2.0-STUTTERSHIT
Language : English
Default : Yes
Alternate group : 1






About bappy

Leave a Reply

Your email address will not be published. Required fields are marked *

*

x

Check Also

What Happened to Monday 1080p Bluray

What Happened to Monday 1080p Bluray

In a not so distant future, where overpopulation and famine have forced ...