Home / Hindi / Pad Man (2018) Hindi DVDScr x264 1.4GB.mkv
Pad Man (2018) Hindi DVDScr x264 1.4GB.mkv

Pad Man (2018) Hindi DVDScr x264 1.4GB.mkv

Padman 2018
N/A minutes – Biography, Comedy, Drama
Ratings: N/A/10 from N/A users
Plot:Biography on Tamil Nadu activist Arunachalam Muruganantham, whose mission was to provide sanitary napkin’s to poor women of rural areas. Who would use rag cloths or leaves during periods …
Director:R. Balki
Stars: Amitabh Bachchan, Akshay Kumar, Sonam Kapoor, Radhika Apte
Language: Hindi
Country: India

Name Pad Man (2018) Hindi DVDScr x264 1.4GB.mkv
Size 1.39 GB
Date 20180223
Download Torrent Download

Media Info
General
Unique ID : 6395125594727770852934740100494015717 (0x4CFA8090CF07680FCBC7A91BC523CE5)
Complete name : Padman (2018) 720p Pre-DVDRip x264 by AFIQUR.mkv
Format : Matroska
Format version : Version 4 / Version 2
File size : 969 MiB
Duration : 2 h 12 min
Overall bit rate : 1 025 kb/s
Movie name : Padman (2018) 720p Pre-DVDRip x264 by AFIQUR
Encoded date : UTC 2018-02-15 09:19:49
Writing application : mkvmerge v20.0.0 (‘I Am The Sun’) 64-bit
Writing library : libebml v1.3.5 + libmatroska v1.4.8

Video
ID : 1
Format : AVC
Format/Info : Advanced Video Codec
Format profile : High@L3.1
Format settings : CABAC / 4 Ref Frames
Format settings, CABAC : Yes
Format settings, RefFrames : 4 frames
Codec ID : V_MPEG4/ISO/AVC
Duration : 2 h 12 min
Bit rate : 911 kb/s
Width : 1 280 pixels
Height : 544 pixels
Display aspect ratio : 2.35:1
Frame rate mode : Constant
Frame rate : 25.000 FPS
Color space : YUV
Chroma subsampling : 4:2:0
Bit depth : 8 bits
Scan type : Progressive
Bits/(Pixel*Frame) : 0.052
Stream size : 862 MiB (89%)
Title : AFIQUR
Writing library : x264 core 142 r2431 ac76440
Encoding settings : cabac=1 / ref=3 / deblock=1:0:0 / *censored*yse=0x3:0x113 / me=hex / subme=7 / psy=1 / psy_rd=1.00:0.00 / mixed_ref=1 / me_range=16 / chroma_me=1 / trellis=1 / 8x8dct=1 / cqm=0 / deadzone=21,11 / fast_pskip=1 / chroma_qp_offset=-2 / threads=12 / lookahead_threads=2 / sliced_threads=0 / nr=0 / decimate=1 / interlaced=0 / bluray_compat=0 / constrained_intra=0 / bframes=3 / b_pyramid=2 / b_adapt=1 / b_bias=0 / direct=1 / weightb=1 / open_gop=0 / weightp=2 / keyint=250 / keyint_min=25 / scenecut=40 / intra_refresh=0 / rc_lookahead=40 / rc=2pass / mbtree=1 / bitrate=911 / ratetol=1.0 / qcomp=0.60 / qpmin=0 / qpmax=69 / qpstep=4 / cplxblur=20.0 / qblur=0.5 / ip_ratio=1.40 / aq=1:1.00
Language : Hindi
Default : Yes
Forced : No

Audio
ID : 2
Format : MPEG Audio
Format version : Version 1
Format profile : Layer 2
Codec ID : A_MPEG/L2
Codec ID/Hint : MP2
Duration : 2 h 12 min
Bit rate mode : Constant
Bit rate : 112 kb/s
Channel(s) : 2 channels
Sampling rate : 48.0 kHz
Frame rate : 41.667 FPS (1152 SPF)
Compression mode : Lossy
Stream size : 106 MiB (11%)
Title : AFIQUR
Language : Hindi
Default : Yes
Forced : No

Text
ID : 3
Format : ASS
Codec ID : S_TEXT/ASS
Codec ID/Info : Advanced Sub Station Alpha
Duration : 1 h 23 min
Bit rate : 0 b/s
Count of elements : 3
Compression mode : Lossless
Stream size : 246 Bytes (0%)
Title : AFIQUR
Language : English
Default : Yes
Forced : No

About bappy

Leave a Reply

Your email address will not be published. Required fields are marked *

*

x

Check Also

Downrange 2017 1080p Amazon WEB-DL DD+2.0.H.264

Downrange 2017 1080p Amazon WEB-DL DD+2.0.H.264

Downrange.2017.1080p.Amazon.WEB-DL.DD+2.0.H.264-QOQ IMDb: http://www.imdb.com/title/tt6138228/ Name Size Date Download Torrent Download (Duration): 1h 29mn ...