Home / Hindi / Padmaavat 2018 Hindi 1GB PreDvDRip x264 AAC
Padmaavat 2018 Hindi 1GB PreDvDRip x264 AAC

Padmaavat 2018 Hindi 1GB PreDvDRip x264 AAC

Director: Sanjay Leela Bhansali
Writers: Prakash Kapadia (screenplay), Sanjay Leela Bhansali (screenplay) | 1 more credit »
Stars: Deepika Padukone, Ranveer Singh, Shahid Kapoor |

Storyline:
Rani Padmavati (aka Padmini) is said to be one of the most beautiful women to ever exist. This real-life story is the epitome of love and sacrifice between Rajput Queen Padmavati and Rana Rawal Ratan Singh, the Rajput ruler of Mewar. Their perfect life takes an unfortunate turn when Allauddin Khilji’s lustful eyes gaze upon Queen Padmavati. Alauddin Khilji is known as one of the most brutal rulers of the Khilji dynasty, ascending to the throne by killing his father-in-law, his brothers-in-law, and their uncles. He was known for attacking states only for their land and women. Indeed, the motive behind the attack on Mewar is none other than royal Rani Padmavati.

Name Padmaavat 2018 Hindi 1GB PreDvDRip x264 AAC
Size 1.00 GB
Date 20180311
Download Torrent

Media Info:
General
Unique ID : 203824010338441623426567296851067459706 (0x99571394D25EC9A78A0B27C376DAD87A)
Complete name : C:Userswin10DesktopPadmaavat 2018 Hindi 720p HQ PRE x264 AACPadmaavat 2018 Hindi 720p HQ PRE x264 AAC.mkv
Format : Matroska
Format version : Version 4 / Version 2
File size : 1.42 GiB
Duration : 2 h 35 min
Overall bit rate : 1 307 kb/s
Movie name : Padmaavat 2018 Hindi 720p HQ PRE x264 AAC
Encoded date : UTC 2018-02-28 15:58:26
Writing application : mkvmerge v7.4.0 (‘Circles’) 64bit built on Dec 12 2014 12:19:56
Writing library : libebml v1.3.0 + libmatroska v1.4.1

Video
ID : 1
Format : AVC
Format/Info : Advanced Video Codec
Format profile : High@L4
Format settings, CABAC : Yes
Format settings, RefFrames : 4 frames
Codec ID : V_MPEG4/ISO/AVC
Duration : 2 h 35 min
Bit rate : 1 200 kb/s
Width : 1 280 pixels
Height : 696 pixels
Display aspect ratio : 1.85:1
Frame rate mode : Constant
Frame rate : 25.000 FPS
Color space : YUV
Chroma subsampling : 4:2:0
Bit depth : 8 bits
Scan type : Progressive
Bits/(Pixel*Frame) : 0.054
Stream size : 1.31 GiB (92%)
Title : Padmaavat 2018 Hindi 720p HQ PRE x264 AAC
Writing library : x264 core 148 r2708 86b7198
Encoding settings : cabac=1 / ref=1 / deblock=1:-1:-1 / *censored*yse=0x3:0x113 / me=hex / subme=2 / psy=1 / psy_rd=1.00:0.15 / mixed_ref=0 / me_range=16 / chroma_me=1 / trellis=0 / 8x8dct=1 / cqm=0 / deadzone=21,11 / fast_pskip=1 / chroma_qp_offset=0 / threads=12 / lookahead_threads=4 / sliced_threads=0 / nr=0 / decimate=1 / interlaced=0 / bluray_compat=0 / constrained_intra=0 / bframes=3 / b_pyramid=2 / b_adapt=1 / b_bias=0 / direct=1 / weightb=1 / open_gop=0 / weightp=1 / keyint=250 / keyint_min=25 / scenecut=40 / intra_refresh=0 / rc_lookahead=10 / rc=abr / mbtree=1 / bitrate=1200 / ratetol=1.0 / qcomp=0.60 / qpmin=0 / qpmax=69 / qpstep=4 / vbv_maxrate=25000 / vbv_bufsize=31250 / nal_hrd=none / filler=0 / ip_ratio=1.40 / aq=1:1.00
Default : Yes
Forced : No
Color range : Limited
Color primaries : BT.601 PAL
Transfer characteristics : BT.709
Matrix coefficients : BT.601

Audio
ID : 2
Format : AAC
Format/Info : Advanced Audio Codec
Format profile : LC
Codec ID : A_AAC
Duration : 2 h 35 min
Bit rate : 96.0 kb/s
Channel(s) : 2 channels
Channel positions : Front: L R
Sampling rate : 44.1 kHz
Frame rate : 43.066 FPS (1024 SPF)
Compression mode : Lossy
Stream size : 107 MiB (7%)
Language : Hindi
Default : Yes
Forced : No

About bappy

Leave a Reply

Your email address will not be published. Required fields are marked *

*

x

Check Also

Downrange 2017 1080p Amazon WEB-DL DD+2.0.H.264

Downrange 2017 1080p Amazon WEB-DL DD+2.0.H.264

Downrange.2017.1080p.Amazon.WEB-DL.DD+2.0.H.264-QOQ IMDb: http://www.imdb.com/title/tt6138228/ Name Size Date Download Torrent Download (Duration): 1h 29mn ...