Home / Hindi / Rangoon 2017 Hindi 720p BluRay x264 5.1 ESub
Rangoon 2017 Hindi 720p BluRay x264 5.1 ESub

Rangoon 2017 Hindi 720p BluRay x264 5.1 ESub

Rangoon 2017
170 min minutes – Action, Drama, History
Ratings: 5.8/10 from 2,642 users
Plot:A love triangle forms against the backdrop of the Second World War.
Director:Vishal Bhardwaj
Stars: Shahid Kapoor, Kangana Ranaut, Saif Ali Khan, Richard McCabe
Language: Hindi
Country: India

Name Rangoon 2017 Hindi 720p BluRay x264 5.1 ESub
Size 1.45 GB
Date 20180118
Download Torrent

Story Line
A love triangle forms against the backdrop of the Second World War.
Director: Vishal Bhardwaj
Writers: Matthew Robbins (story), Matthew Robbins (screenplay) | 3 more credits »
Stars: Kangana Ranaut, Shahid Kapoor, Saif Ali Khan | See full cast & crew Plot: A love triangle forms against the backdrop of the Second World War.
Actors: Shahid Kapoor, Kangana Ranaut, Saif Ali Khan, Richard McCabe
Awards: N/A
Country: India

General
Format : Matroska
Format version : Version 4 / Version 2
File size : 1.45 GiB
Duration : 2h 33mn
Overall bit rate : 1 354 Kbps
Movie name : Rangoon 2017 Hindi 720p BluRay x264 5.1 ESub [Moviezworldz] Encoded date : UTC 2017-08-13 14:05:01
Writing application : mkvmerge v7.4.0 (‘Circles’) 64bit built on Dec 12 2014 12:19:56
Writing library : libebml v1.3.0 + libmatroska v1.4.1

Video
Format : AVC
Format/Info : Advanced Video Codec
Format profile : High@L3.1
Format settings, CABAC : Yes
Format settings, ReFrames : 4 frames
Codec ID : V_MPEG4/ISO/AVC
Duration : 2h 32mn
Bit rate : 1 200 Kbps
Width : 1 280 pixels
Height : 536 pixels
Display aspect ratio : 2.40:1
Frame rate mode : Constant
Frame rate : 24.000 fps
Color space : YUV
Chroma subsampling : 4:2:0
Bit depth : 8 bits
Scan type : Progressive
Bits/(Pixel*Frame) : 0.073
Stream size : 1.27 GiB (88%)
Title : Rangoon 2017 Hindi 720p BluRay x264 5.1 ESub [Moviezworldz] Writing library : x264 core 148 r2643 5c65704
Language : Hindi
Default : Yes
Forced : No

Audio
Format : AC-3
Format/Info : Audio Coding 3
Mode extension : CM (complete main)
Format settings, Endianness : Big
Codec ID : A_AC3
Duration : 2h 33mn
Bit rate mode : Constant
Bit rate : 160 Kbps
Channel(s) : 6 channels
Channel positions : Front: L C R, Side: L R, LFE
Sampling rate : 44.1 KHz
Frame rate : 28.711 fps (1536 spf)
Compression mode : Lossy
Stream size : 175 MiB (12%)
Title : Rangoon 2017 Hindi 720p BluRay x264 5.1 ESub [Moviezworldz] Default : Yes
Forced : No

Text
Format : UTF-8
Codec ID : S_TEXT/UTF8
Codec ID/Info : UTF-8 Plain Text
Duration : 2h 24mn
Bit rate : 38 bps
Count of elements : 1377
Stream size : 40.6 KiB (0%)
Title : Rangoon 2017 Hindi 720p BluRay x264 5.1 ESub [Moviezworldz] Language : Dutch
Default : Yes
Forced : No

About bappy

Leave a Reply

Your email address will not be published. Required fields are marked *

*

x

Check Also

Downrange 2017 1080p Amazon WEB-DL DD+2.0.H.264

Downrange 2017 1080p Amazon WEB-DL DD+2.0.H.264

Downrange.2017.1080p.Amazon.WEB-DL.DD+2.0.H.264-QOQ IMDb: http://www.imdb.com/title/tt6138228/ Name Size Date Download Torrent Download (Duration): 1h 29mn ...