Home / Hindi / Secret Superstar 2017 WEB-HD 720p
Secret Superstar (2017) WEB-HD

Secret Superstar 2017 WEB-HD 720p

Secret Superstar 2017
150 min minutes – Drama, Family, Music
Ratings: 8.3/10 from 7,114 users
Plot:Insia is a 14 year-old from Vadodara who dreams of being a singer one day.
Director:Advait Chandan
Stars: Zaira Wasim, Meher Vij, Raj Arjun, Tirth Sharma
Language: Hindi
Country: India

Name Secret Superstar (2017) WEB-HD Untouched 720p Hindi x264 ACC
Size 1.36 GB
Date 20180218
Download Torrent

Secret Superstar (2017) HDTv 720p Hindi x264 ACC -LatestHDMovies.MP4
Format : MPEG-4
Format profile : Base Media
Codec ID : isom (isom/iso2/avc1/mp41)
File size : 1.36 GiB
Duration : 2 h 23 min
Overall bit rate : 1 351 kb/s
Movie name : LatestHDMovies
Writing application : Lavf57.83.100
Cover : Yes

Video
ID : 1
Format : AVC
Format/Info : Advanced Video Codec
Format profile : High@L3.1
Format settings : CABAC / 5 Ref Frames
Format settings, CABAC : Yes
Format settings, ReFrames : 5 frames
Codec ID : avc1
Codec ID/Info : Advanced Video Coding
Duration : 2 h 23 min
Bit rate : 1 216 kb/s
Width : 1 280 pixels
Height : 720 pixels
Display aspect ratio : 16:9
Frame rate mode : Constant
Frame rate : 25.000 FPS
Color space : YUV
Chroma subsampling : 4:2:0
Bit depth : 8 bits
Scan type : Progressive
Bits/(Pixel*Frame) : 0.053
Stream size : 1.22 GiB (90%)
Writing library : x264 core 148 r2643 5c65704
Encoding settings : cabac=1 / ref=5 / deblock=1:0:0 / *censored*yse=0x3:0x113 / me=hex / subme=7 / psy=1 / psy_rd=1.00:0.00 / mixed_ref=1 / me_range=16 / chroma_me=1 / trellis=1 / 8x8dct=1 / cqm=0 / deadzone=21,11 / fast_pskip=1 / chroma_qp_offset=-2 / threads=8 / lookahead_threads=8 / sliced_threads=1 / slices=8 / nr=0 / decimate=1 / interlaced=0 / bluray_compat=0 / constrained_intra=0 / bframes=0 / weightp=2 / keyint=250 / keyint_min=25 / scenecut=40 / intra_refresh=0 / rc=abr / mbtree=0 / bitrate=1216 / ratetol=1.0 / qcomp=0.60 / qpmin=0 / qpmax=69 / qpstep=4 / ip_ratio=1.40 / aq=1:1.00

Audio
ID : 2
Format : AAC
Format/Info : Advanced Audio Codec
Format profile : LC
Codec ID : mp4a-40-2
Duration : 2 h 23 min
Bit rate mode : Constant
Bit rate : 128 kb/s
Channel(s) : 2 channels
Channel positions : Front: L R
Sampling rate : 44.1 kHz
Frame rate : 43.066 FPS (1024 SPF)
Compression mode : Lossy
Stream size : 132 MiB (9%)
Language : Hindi
Default : Yes
Alternate group : 1

 





About bappy

Leave a Reply

Your email address will not be published. Required fields are marked *

*

x

Check Also

Downrange 2017 1080p Amazon WEB-DL DD+2.0.H.264

Downrange 2017 1080p Amazon WEB-DL DD+2.0.H.264

Downrange.2017.1080p.Amazon.WEB-DL.DD+2.0.H.264-QOQ IMDb: http://www.imdb.com/title/tt6138228/ Name Size Date Download Torrent Download (Duration): 1h 29mn ...