Home / English / Smartass 2017 1080p WEB-DL
Smartass.2017.1080p.WEB-DL.DD5.1.H264-FGT

Smartass 2017 1080p WEB-DL

Smartass 2017
90 min minutes – Comedy, Drama, Horror
Ratings: 4.7/10 from 181 users
Plot:A 15 year old girl becomes intimately acquainted to a town in California after being released from prison.
Director:Jena Serbu
Stars: Joey King, Luke Pasqualino, Ronen Rubinstein, Tade Adepoyibi
Language: English
Country: USA

Name Smartass.2017.1080p.WEB-DL.DD5.1.H264-FGT
Size 1.38 GB
Date 20180205
Download Torrent

Smartass.2017.1080p.WEB-DL.DD5.1.H264-FGT

Video
ID : 1
Format : AVC
Format/Info : Advanced Video Codec
Format profile : High@L4
Format settings : CABAC / 5 Ref Frames
Format settings, CABAC : Yes
Format settings, ReFrames : 5 frames
Codec ID : V_MPEG4/ISO/AVC
Duration : 1 h 30 min
Bit rate : 4 555 kb/s
Width : 1 920 pixels
Height : 792 pixels
Display aspect ratio : 2.40:1
Frame rate mode : Constant
Frame rate : 24.000 FPS
Color space : YUV
Chroma subsampling : 4:2:0
Bit depth : 8 bits
Scan type : Progressive
Bits/(Pixel*Frame) : 0.125
Stream size : 2.87 GiB (92%)
Title : Smartass.2017.1080p.WEB-DL.DD5.1.H264-FGT
Language : English
Default : Yes
Forced : No
Color range : Limited
Color primaries : BT.709
Transfer characteristics : BT.709
Matrix coefficients : BT.709

Audio
ID : 2
Format : AC-3
Format/Info : Audio Coding 3
Codec ID : A_AC3
Duration : 1 h 30 min
Bit rate mode : Constant
Bit rate : 384 kb/s
Channel(s) : 6 channels
Channel positions : Front: L C R, Side: L R, LFE
Sampling rate : 48.0 kHz
Frame rate : 31.250 FPS (1536 SPF)
Bit depth : 16 bits
Compression mode : Lossy
Stream size : 248 MiB (8%)
Title : Smartass.2017.1080p.WEB-DL.DD5.1.H264-FGT
Language : English
Service kind : Complete Main
Default : Yes
Forced : No

Text
ID : 3
Format : UTF-8
Codec ID : S_TEXT/UTF8
Codec ID/Info : UTF-8 Plain Text
Duration : 1 h 29 min
Bit rate : 72 b/s
Count of elements : 1853
Stream size : 47.6 KiB (0%)
Language : English
Default : Yes
Forced : No

Screenshot:




About bappy

Leave a Reply

Your email address will not be published. Required fields are marked *

*

x

Check Also

18+ Rocco 2016 WEB-DL 1080p

18+ Rocco 2016 WEB-DL 1080p

Rocco Siffredi is to pornography what Mike Tyson is to boxing or ...