Home / Hindi / Sonu Ke Titu Ki Sweety (2018) Hindi 1CD pDVDRip – x264 – AAC
Sonu Ke Titu Ki Sweety (2018) Hindi 1CD pDVDRip – x264 – AAC

Sonu Ke Titu Ki Sweety (2018) Hindi 1CD pDVDRip – x264 – AAC

MAGNET DOWNLOAD
TORRENT DOWNLOAD
IMDB Rating8.7/10 from 166 votes
Release2018
GenreComedy , Romance
DirectorLuv Ranjan
StarsKartik Aaryan , Nushrat Bharucha , Sunny Singh Nijjar
LanguagesHindi
PeersSeed: 123, Leecher: 42
QuanlityDVDScr
File size697.88 MB
UploaderiTorrents
Synopsis
We have always been told that “Marriage” is a marriage between two families. ‘Sonu ke Titu ki Sweety’ explores the new age version of the same belief where “Marriage” is a marriage between two friend circles. What happens when you decide to get married, but your best friend and your girlfriend can’t see eye to eye. Sonu and Titu are childhood friends. Titu has always been a naïve lover, who falls in love easily and Sonu has always had to step in to save him. But Sweety is the perfect bride and Titu is head over heels in love with her. Sonu’s instinct to protect Titu at whatever cost, makes him feel that she’s too good to be true. What ensues is a war between the best friend and the bride to be. While Sweety is trying to impress Titu and the family alike, Sonu is out to sabotage the utopian romance

Name Sonu Ke Titu Ki Sweety (2018) Hindi 1CD pDVDRip - x264 - AAC
Size 697 MB
Date 20180225
Download Torrent Download

Video
ID : 1
Format : AVC
Format/Info : Advanced Video Codec
Format profile : High@L4.1
Format settings, CABAC : Yes
Format settings, RefFrames : 4 frames
Codec ID : V_MPEG4/ISO/AVC
Duration : 2 h 11 min
Bit rate : 1 000 kb/s
Width : 1 280 pixels
Height : 720 pixels
Display aspect ratio : 16:9
Frame rate mode : Constant
Frame rate : 25.000 FPS
Color space : YUV
Chroma subsampling : 4:2:0
Bit depth : 8 bits
Scan type : Progressive
Bits/(Pixel*Frame) : 0.043
Stream size : 939 MiB (84%)
Title : www.movcr.com
Writing library : x264 core 132
Encoding settings : cabac=1 / ref=1 / deblock=1:0:0 / *censored*yse=0x3:0x113 / me=hex / subme=2 / psy=1 / psy_rd=1.00:0.00 / mixed_ref=0 / me_range=16 / chroma_me=1 / trellis=1 / 8x8dct=1 / cqm=0 / deadzone=21,11 / fast_pskip=1 / chroma_qp_offset=0 / threads=4 / lookahead_threads=1 / sliced_threads=0 / nr=0 / decimate=1 / interlaced=0 / bluray_compat=0 / constrained_intra=0 / bframes=2 / b_pyramid=2 / b_adapt=1 / b_bias=0 / direct=1 / weightb=1 / open_gop=0 / weightp=1 / keyint=25 / keyint_min=13 / scenecut=40 / intra_refresh=0 / rc_lookahead=1 / rc=abr / mbtree=1 / bitrate=1000 / ratetol=0.1 / qcomp=0.60 / qpmin=1 / qpmax=35 / qpstep=2 / ip_ratio=1.40 / aq=1:1.00
Default : Yes
Forced : No

Audio
ID : 2
Format : AAC
Format/Info : Advanced Audio Codec
Format profile : LC
Codec ID : A_AAC
Duration : 2 h 11 min
Bit rate : 192 kb/s
Channel(s) : 2 channels
Channel positions : Front: L R
Sampling rate : 44.1 kHz
Frame rate : 43.066 FPS (1024 SPF)
Compression mode : Lossy
Stream size : 180 MiB (16%)
Title : www.movcr.com
Default : Yes
Forced : No

 





About bappy

Leave a Reply

Your email address will not be published. Required fields are marked *

*

x

Check Also

Downrange 2017 1080p Amazon WEB-DL DD+2.0.H.264

Downrange 2017 1080p Amazon WEB-DL DD+2.0.H.264

Downrange.2017.1080p.Amazon.WEB-DL.DD+2.0.H.264-QOQ IMDb: http://www.imdb.com/title/tt6138228/ Name Size Date Download Torrent Download (Duration): 1h 29mn ...