Home / Hindi / Swades (2004) Full Movie [Hindi-DD5.1] 720p BluRay ESubs
Swades (2004) Full Movie [Hindi-DD5.1] 720p BluRay ESubs

Swades (2004) Full Movie [Hindi-DD5.1] 720p BluRay ESubs

General
Unique ID : 238707668164423607820849778971065845357 (0xB3956CB30FE8C882A477257E7CAA066D)
Complete name : Swades (2004) Full Movie [Hindi-DD5.1] 720p BluRay ESubs [ExtraMovies].mkv
Format : Matroska
Format version : Version 4 / Version 2
File size : 1.54 GiB
Duration : 3 h 15 min
Overall bit rate : 1 129 kb/s
Movie name : ExtraMovies.cc – Swades (2004) 720p BRRip Hindi DD5.1 x264 AAC ESubs
Encoded date : UTC 2018-01-17 12:22:38
Writing application : mkvmerge v18.0.0 (‘Apricity’) 64-bit
Writing library : libebml v1.3.5 + libmatroska v1.4.8

Name Swades (2004) Full Movie [Hindi-DD5.1] 720p BluRay ESubs
Size 1.54 GB
Date 20180118
Download Torrent Download

Video
ID : 1
Format : AVC
Format/Info : Advanced Video Codec
Format profile : High@L4.1
Format settings : CABAC / 8 Ref Frames
Format settings, CABAC : Yes
Format settings, RefFrames : 8 frames
Codec ID : V_MPEG4/ISO/AVC
Duration : 3 h 15 min
Bit rate : 999 kb/s
Width : 1 280 pixels
Height : 544 pixels
Display aspect ratio : 2.35:1
Frame rate mode : Constant
Frame rate : 23.976 (24000/1001) FPS
Color space : YUV
Chroma subsampling : 4:2:0
Bit depth : 8 bits
Scan type : Progressive
Bits/(Pixel*Frame) : 0.060
Stream size : 1.36 GiB (88%)
Title : ExtraMovies.cc
Writing library : x264 core 142 r2479 dd79a61
Encoding settings : cabac=1 / ref=8 / deblock=1:0:0 / *censored*yse=0x3:0x113 / me=umh / subme=9 / psy=1 / psy_rd=1.00:0.00 / mixed_ref=1 / me_range=16 / chroma_me=1 / trellis=2 / 8x8dct=1 / cqm=0 / deadzone=21,11 / fast_pskip=1 / chroma_qp_offset=-2 / threads=12 / lookahead_threads=1 / sliced_threads=0 / nr=0 / decimate=1 / interlaced=0 / bluray_compat=0 / constrained_intra=0 / bframes=3 / b_pyramid=2 / b_adapt=2 / b_bias=0 / direct=3 / weightb=1 / open_gop=0 / weightp=2 / keyint=240 / keyint_min=24 / scenecut=40 / intra_refresh=0 / rc_lookahead=40 / rc=2pass / mbtree=1 / bitrate=999 / ratetol=1.0 / qcomp=0.60 / qpmin=0 / qpmax=69 / qpstep=4 / cplxblur=20.0 / qblur=0.5 / vbv_maxrate=62500 / vbv_bufsize=78125 / nal_hrd=none / filler=0 / ip_ratio=1.40 / aq=1:1.00
Default : Yes
Forced : No
Color range : Limited
Color primaries : BT.709
Transfer characteristics : BT.709
Matrix coefficients : BT.709

Audio
ID : 2
Format : AAC
Format/Info : Advanced Audio Codec
Format profile : HE-AAC / LC
Format settings : NBC
Codec ID : A_AAC-5
Duration : 3 h 15 min
Bit rate : 128 kb/s
Channel(s) : 6 channels
Channel positions : Front: L C R, Side: L R, LFE
Sampling rate : 48.0 kHz / 24.0 kHz
Frame rate : 23.438 FPS (1024 SPF)
Compression mode : Lossy
Delay relative to video : -105 ms
Stream size : 179 MiB (11%)
Title : ExtraMovies.cc
Language : Hindi
Default : Yes
Forced : No

Text
ID : 3
Format : UTF-8
Codec ID : S_TEXT/UTF8
Codec ID/Info : UTF-8 Plain Text
Duration : 3 h 10 min
Bit rate : 53 b/s
Count of elements : 1953
Stream size : 74.5 KiB (0%)
Title : ExtraMovies.cc
Language : English
Default : Yes
Forced : No

About bappy

Leave a Reply

Your email address will not be published. Required fields are marked *

*

x

Check Also

Hate Story 4 2018 Hindi 720p

Hate Story 4 2018 Hindi 720p

IMDB :http://www.imdb.com/title/tt5325684/?ref_=nv_sr_2 IMDB Rating : 3.9/10 from 137 Users General Unique ID ...