Home / Movie / Ted 2 2015 Unrated (1080p Bluray x265 HEVC 10bit AAC 5.1 Tigole)
Ted 2 2015 Unrated (1080p Bluray x265 HEVC 10bit AAC 5.1 Tigole)

Ted 2 2015 Unrated (1080p Bluray x265 HEVC 10bit AAC 5.1 Tigole)

Months after John’s divorce, Ted and Tami-Lynn’s marriage seems on the same road. To patch things up, Ted and Tami-Lynn plan to have a child with John’s help, but their failed efforts backfire disastrously. Namely, Ted is declared property by the government and he loses all his civil rights. Now, Ted must fight a seemingly hopeless legal battle with an inexperienced young lawyer to regain his rightful legal status. Unfortunately, between Ted’s drunken idiocies and sinister forces interested in this situation to exploit him, Ted’s quest has all the odds against him.
Director:Seth MacFarlane
Stars: Mark Wahlberg, Seth MacFarlane, Amanda Seyfried, Jessica Barth
Language: English
Country: USA

Name
Size
Date
Download Torrent

 

General
Format : Matroska
Format version : Version 4 / Version 2
File size : 3.42 GiB
Duration : 2 h 5 min
Overall bit rate : 3 885 kb/s
Movie name : Ted 2
Encoded date : UTC 2017-09-04 20:10:54
Writing application : mkvmerge v14.0.0 (‘Flow’) 64bit
Writing library : libebml v1.3.4 + libmatroska v1.4.5

Video
ID : 1
Format : HEVC
Format/Info : High Efficiency Video Coding
Format profile : Main 10@L4@Main
Codec ID : V_MPEGH/ISO/HEVC
Duration : 2 h 5 min
Bit rate : 3 422 kb/s
Width : 1 920 pixels
Height : 800 pixels
Display aspect ratio : 2.40:1
Frame rate mode : Constant
Frame rate : 23.976 (24000/1001) FPS
Color space : YUV
Chroma subsampling : 4:2:0
Bit depth : 10 bits
Bits/(Pixel*Frame) : 0.093
Stream size : 3.01 GiB (88%)

Audio #1
ID : 2
Format : AAC
Format/Info : Advanced Audio Codec
Format profile : LC
Codec ID : A_AAC
Duration : 2 h 5 min
Bit rate : 373 kb/s
Channel(s) : 6 channels
Channel positions : Front: L C R, Side: L R, LFE
Sampling rate : 48.0 kHz
Frame rate : 46.875 FPS (1024 spf)
Compression mode : Lossy
Delay relative to video : 20 ms
Stream size : 336 MiB (10%)
Language : English
Default : Yes
Forced : No

About bappy

Leave a Reply

Your email address will not be published. Required fields are marked *

*

x

Check Also

What Happened to Monday 1080p Bluray

What Happened to Monday 1080p Bluray

In a not so distant future, where overpopulation and famine have forced ...