Home / Hindi / Thor Ragnarok (2017) 720p BluRay [Hindi-English] – 1.4GB
Thor Ragnarok (2017)

Thor Ragnarok (2017) 720p BluRay [Hindi-English] – 1.4GB

IMDB Rating8.0/10 from 237,340 votes
Release2017
GenreAction , Adventure , Comedy , Fantasy , Sci-Fi
DirectorTaika Waititi
StarsChris Hemsworth , Tom Hiddleston , Cate Blanchett
LanguagesEnglish , Hindi , Telugu , Dubbed
PeersSeed: 3, Leecher: 3
Quanlity720P,Bluray
File size1.49 GB
Uploaderkingmaker
Synopsis
Thor is imprisoned on the other side of the universe and finds himself in a race against time to get back to Asgard to stop Ragnarok, the destruction of his homeworld and the end of Asgardian civilization, at the hands of an all-powerful new threat, the ruthless Hela.

Name Thor Ragnarok (2017) 720p BluRay [Hindi-English] - 1.4GB
Size 1.49 GB
Date 20180218
Download Torrent Download

Format : Matroska
Format version : Version 4 / Version 2
File size : 2.98 GiB
Duration : 2 h 10 min
Overall bit rate : 3 264 kb/s
Video
ID : 2
Format : HEVC
Format/Info : High Efficiency Video Coding
Format profile : Main 10@L4@Main
Codec ID : V_MPEGH/ISO/HEVC
Duration : 2 h 10 min
Bit rate : 2 878 kb/s
Width : 1 920 pixels
Height : 800 pixels
Display aspect ratio : 2.40:1
Frame rate mode : Constant
Frame rate : 23.976 (24000/1001) FPS
Color space : YUV
Chroma subsampling : 4:2:0
Bit depth : 10 bits
Bits/(Pixel*Frame) : 0.078
Stream size : 2.63 GiB (88%)
Language : English
Default : Yes
Forced : No

Audio
ID : 1
Format : AC-3
Format/Info : Audio Coding 3
Codec ID : A_AC3
Duration : 2 h 10 min
Bit rate mode : Constant
Bit rate : 384 kb/s
Channel(s) : 6 channels
Channel positions : Front: L C R, Side: L R, LFE
Sampling rate : 48.0 kHz
Frame rate : 31.250 FPS (1536 SPF)
Bit depth : 16 bits
Compression mode : Lossy
Stream size : 359 MiB (12%)
Language : English
Service kind : Complete Main
Default : Yes
Forced : No

Text
ID : 3
Format : UTF-8
Codec ID : S_TEXT/UTF8
Codec ID/Info : UTF-8 Plain Text
Duration : 2 h 10 min
Bit rate : 52 b/s
Count of elements : 1764
Stream size : 49.8 KiB (0%)
Title : By UTRSubs
Language : English
Default : Yes
Forced : No







 

About bappy

Leave a Reply

Your email address will not be published. Required fields are marked *

*

x

Check Also

Downrange 2017 1080p Amazon WEB-DL DD+2.0.H.264

Downrange 2017 1080p Amazon WEB-DL DD+2.0.H.264

Downrange.2017.1080p.Amazon.WEB-DL.DD+2.0.H.264-QOQ IMDb: http://www.imdb.com/title/tt6138228/ Name Size Date Download Torrent Download (Duration): 1h 29mn ...