Home / English / Transformers The Last Knight 2017 [Hindi Dubbed]
https://windows-torrent-download.net/download/transformers-the-last-knight-2017-hindi-dubbed/

Transformers The Last Knight 2017 [Hindi Dubbed]

Transformers The Last Knight 2017 [Hindi Dubbed] – Full Movie | FREE DOWNLOAD | TORRENT | HD 1080p | x264 | WEB-DL | DD5.1 | H264 | MP4 | 720p | DVD | Bluray.

Autobots and Decepticons are at war, with humans on the sidelines. Optimus Prime is gone. The key to saving our future lies buried in the secrets of the past, in the hidden history of Transformers on Earth.

Transformers: The Last Knight 2017
154 min minutes – Action, Adventure, Sci-Fi
Ratings: 5.2/10 from 91,477 users
Plot:Optimus Prime finds his dead home planet, Cybertron, in which he comes to find he was responsible for its destruction. He finds a way to bring Cybertron back to life, but in order to do so, Optimus needs to find an artifact that is on Earth.
Director:Michael Bay
Stars: Mark Wahlberg, Anthony Hopkins, Josh Duhamel, Laura Haddock
Language: English
Country: USA, China, Canada

Name Transformers The Last Knight 2017 [Hindi Dubbed]
Size 1.34 GB
Date 20180331
Download Torrent Download

Plot: Optimus Prime finds his dead home planet, Cybertron, in which he comes to find he was responsible for its destruction. He finds a way to bring Cybertron back to life, but in order to do so, Optimus needs to find an artifact that is on Earth.
Actors: Mark Wahlberg, Anthony Hopkins, Josh Duhamel, Laura Haddock
Awards: 6 nominations.
Country: China, Canada, USA

General
Unique ID : 180349369761069652390358952236399278098 (0x87AE06715F4214DAB7D27E6E8CC13812)
Complete name :Transformers The Last Knight 2017 720p BluRay Hindi English DD 5.1 – LOKI – M2Tv
Format : Matroska
Format version : Version 4 / Version 2
File size : 3.68 GiB
Duration : 2 h 34 min
Overall bit rate : 3 403 kb/s
Movie name : Transformers The Last Knight 2017 720p BluRay Hindi English DD 5.1 – LOKI – M2Tv
Encoded date : UTC 2017-10-19 05:17:22
Writing application : mkvmerge v14.0.0 (‘Flow’) 32bit
Writing library : libebml v1.3.4 + libmatroska v1.4.5

Video
Format : AVC
Format/Info : Advanced Video Codec
Format profile : High@L4.1
Format settings : CABAC / 8 Ref Frames
Format settings, CABAC : Yes
Format settings, RefFrames : 8 frames
Codec ID : V_MPEG4/ISO/AVC
Duration : 2 h 34 min
Bit rate : 2 564 kb/s
Width : 1 280 pixels
Height : 674 pixels
Display aspect ratio : 1.899
Frame rate mode : Constant
Frame rate : 23.976 (24000/1001) FPS
Color space : YUV
Chroma subsampling : 4:2:0
Bit depth : 8 bits
Scan type : Progressive
Bits/(Pixel*Frame) : 0.124
Stream size : 2.77 GiB (75%)
Title : LOKI
Writing library : x264 core 148 r2744 b97ae06
Encoding settings : cabac=1 / ref=8 / deblock=1:-1:-1 / *censored*yse=0x3:0x133 / me=umh / subme=9 / psy=1 / psy_rd=1.00:0.15 / mixed_ref=1 / me_range=32 / chroma_me=1 / trellis=2 / 8x8dct=1 / cqm=0 / deadzone=21,11 / fast_pskip=1 / chroma_qp_offset=-3 / threads=12 / lookahead_threads=1 / sliced_threads=0 / nr=0 / decimate=1 / interlaced=0 / bluray_compat=0 / constrained_intra=0 / bframes=3 / b_pyramid=2 / b_adapt=2 / b_bias=0 / direct=3 / weightb=1 / open_gop=0 / weightp=2 / keyint=230 / keyint_min=23 / scenecut=40 / intra_refresh=0 / rc_lookahead=60 / rc=2pass / mbtree=1 / bitrate=2564 / ratetol=1.0 / qcomp=0.60 / qpmin=0 / qpmax=69 / qpstep=4 / cplxblur=20.0 / qblur=0.5 / ip_ratio=1.40 / aq=1:1.00
Language : Hindi
Color range : Limited
Color primaries : BT.709
Transfer characteristics : BT.709
Matrix coefficients : BT.709

Audio #1
Format : AC-3
Format/Info : Audio Coding 3
Format settings, Endianness : Big
Codec ID : A_AC3
Duration : 2 h 34 min
Bit rate mode : Constant
Bit rate : 384 kb/s
Channel(s) : 6 channels
Channel positions : Front: L C R, Side: L R, LFE
Sampling rate : 48.0 kHz
Frame rate : 31.250 FPS (1536 SPF)
Bit depth : 16 bits
Compression mode : Lossy
Stream size : 425 MiB (11%)
Title : LOKI
Language : Hindi
Service kind : Complete Main

Audio #2
Format : AC-3
Format/Info : Audio Coding 3
Format settings, Endianness : Big
Codec ID : A_AC3
Duration : 2 h 34 min
Bit rate mode : Constant
Bit rate : 384 kb/s
Channel(s) : 6 channels
Channel positions : Front: L C R, Side: L R, LFE
Sampling rate : 48.0 kHz
Frame rate : 31.250 FPS (1536 SPF)
Bit depth : 16 bits
Compression mode : Lossy
Stream size : 425 MiB (11%)
Title : LOKI
Language : English
Service kind : Complete Main

Text #1
Format : PGS
Codec ID : S_HDMV/PGS
Codec ID/Info : Picture based subtitle format used on BDs/HD-DVDs
Duration : 2 h 24 min
Bit rate : 41.6 kb/s
Count of elements : 4552
Stream size : 43.1 MiB (1%)
Title : LOKI
Language : English

Text #2
Format : PGS
Codec ID : S_HDMV/PGS
Codec ID/Info : Picture based subtitle format used on BDs/HD-DVDs
Duration : 2 h 34 min
Bit rate : 31.0 kb/s
Count of elements : 4725
Stream size : 34.1 MiB (1%)
Title : LOKI
Language : Hindi

Menu
00:00:00.000 : en:00:00:00.000
00:06:36.104 : en:00:06:36.104
00:14:03.468 : en:00:14:03.468
00:21:45.763 : en:00:21:45.763
00:27:53.255 : en:00:27:53.255
00:33:53.907 : en:00:33:53.907
00:40:08.906 : en:00:40:08.906
00:46:58.941 : en:00:46:58.941
00:53:25.786 : en:00:53:25.786
01:02:02.928 : en:01:02:02.928
01:08:47.081 : en:01:08:47.081
01:14:37.223 : en:01:14:37.223
01:20:10.180 : en:01:20:10.180
01:29:13.390 : en:01:29:13.390
01:37:59.499 : en:01:37:59.499
01:44:57.583 : en:01:44:57.583
01:51:15.502 : en:01:51:15.502
01:57:59.447 : en:01:57:59.447
02:06:09.729 : en:02:06:09.729
02:10:54.096 : en:02:10:54.096
02:16:01.153 : en:02:16:01.153
02:21:42.619 : en:02:21:42.619
02:25:17.292 : en:02:25:17.292

Screenshot

 















About bappy

Leave a Reply

Your email address will not be published. Required fields are marked *

*

x

Check Also

What Happened to Monday 1080p Bluray

What Happened to Monday 1080p Bluray

In a not so distant future, where overpopulation and famine have forced ...